<?xml version="1.0" standalone="no"?>
<!DOCTYPE svg PUBLIC "-//W3C//DTD SVG 1.1//EN" "http://www.w3.org/Graphics/SVG/1.1/DTD/svg11.dtd" >
<svg xmlns="http://www.w3.org/2000/svg">
<metadata>
This is a custom SVG webfont generated by Font Squirrel.
Copyright   : Copyright c Mark Simonson 2005 All rights reserved
Designer    : Mark Simonson
Foundry URL : httpwwwmarksimonsoncom
</metadata>
<defs>
<font id="webfont6sxRSh1D" horiz-adv-x="1206" >
<font-face units-per-em="2048" ascent="1618" descent="-430" />
<missing-glyph horiz-adv-x="524" />
<glyph unicode=" "  horiz-adv-x="524" />
<glyph unicode="&#x09;" horiz-adv-x="524" />
<glyph unicode="&#xa0;" horiz-adv-x="524" />
<glyph unicode="!" horiz-adv-x="546" d="M416 477h-281l-49 889h377zM276.5 -23q-77.5 0 -135 57.5t-57.5 135.5t57.5 134t135 56t134 -56t56.5 -134t-56.5 -135.5t-134 -57.5z" />
<glyph unicode="&#x22;" horiz-adv-x="897" d="M311 731h-133q-98 449 -98 492q0 68 48 115.5t115.5 47.5t117 -48t49.5 -115q0 -18 -25 -142l-49 -237zM719 731h-131q-98 449 -99 492q0 68 47.5 115.5t116.5 47.5q68 0 116 -48t48 -115q0 -18 -24 -142l-50 -237z" />
<glyph unicode="#" horiz-adv-x="1294" d="M733 0h-227l112 336h-178l-110 -336h-226l113 336h-188l63 194h191l100 304h-190l61 194h195l112 338h225l-112 -338h176l113 338h227l-115 -338h191l-60 -194h-194l-103 -304h197l-62 -194h-200zM682 530l102 304h-176l-100 -304h174z" />
<glyph unicode="$" horiz-adv-x="1280" d="M541 -205v187q-299 29 -492 211l187 274q129 -129 305 -166v227q-92 20 -161 46t-139.5 73t-108.5 124t-38 181q0 162 119 283t328 145v193h227v-195q248 -35 424 -182l-193 -264q-100 82 -231 119v-199q74 -16 130 -34.5t121.5 -52.5t106.5 -76t70 -108.5t29 -148.5 q0 -186 -119 -306t-338 -144v-187h-227zM866 395q0 51 -98 82v-180q98 26 98 98zM453 981q0 -49 88 -76v164q-88 -14 -88 -88z" />
<glyph unicode="%" horiz-adv-x="1579" d="M401 702q-158 0 -256 97.5t-98 242.5q0 147 98.5 245.5t255.5 98.5q162 0 261.5 -98t99.5 -246q0 -145 -99.5 -242.5t-261.5 -97.5zM444 0h-178l873 1366h180zM1176 -25q-160 0 -258.5 97.5t-98.5 242.5q0 147 98.5 245.5t258.5 98.5q158 0 257 -98t99 -246 q0 -145 -99 -242.5t-257 -97.5zM401.5 891q61.5 0 101.5 40t40 111q0 74 -40 115t-101.5 41t-99.5 -41t-38 -115q0 -72 38 -111.5t99.5 -39.5zM1175.5 164q61.5 0 100.5 39t39 112.5t-39 114.5t-100.5 41t-100.5 -41t-39 -114.5t39 -112.5t100.5 -39z" />
<glyph unicode="&#x26;" horiz-adv-x="1329" d="M1333 0h-393l-82 84q-162 -109 -356 -109q-203 0 -334 104.5t-131 299.5q0 141 76.5 231t212.5 158q-82 160 -82 287q0 139 116.5 235t296.5 96q158 0 270.5 -81.5t112.5 -217.5q0 -141 -86 -221t-243 -149l98 -125l94 -117q72 115 113 242l248 -115q-88 -188 -193 -319z M547 219q72 0 147 43q-104 123 -127 152q-41 49 -123 159q-78 -68 -77 -163q0 -84 53 -137.5t127 -53.5zM555 1047q0 -66 47 -160q84 39 127 81t43 101q0 43 -27.5 69.5t-70.5 26.5q-51 0 -85 -33.5t-34 -84.5z" />
<glyph unicode="'" horiz-adv-x="489" d="M311 731h-133q-98 449 -98 492q0 68 48 115.5t115.5 47.5t117 -48t49.5 -115q0 -18 -25 -142l-49 -237z" />
<glyph unicode="(" horiz-adv-x="659" d="M623 -252l-199 -156q-156 156 -250 406t-94 500t94 499.5t250 405.5l199 -152q-109 -184 -157 -360t-48 -393q0 -215 48 -392.5t157 -357.5z" />
<glyph unicode=")" horiz-adv-x="659" d="M37 -252l199 -156q156 156 250 406t94 500t-94.5 499.5t-249.5 405.5l-199 -152q106 -184 154.5 -360t48.5 -393q0 -215 -48.5 -392.5t-154.5 -357.5z" />
<glyph unicode="*" horiz-adv-x="731" d="M440 727h-147l8 219l-184 -119l-74 129l195 101l-195 100l74 127l184 -117l-8 219h147l-12 -219l186 117l74 -127l-194 -100l194 -101l-74 -129l-186 119z" />
<glyph unicode="+" horiz-adv-x="1038" d="M979 596h-356v-406h-207v406h-357v188h357v392h207v-392h356v-188z" />
<glyph unicode="," horiz-adv-x="548" d="M479 125q0 -252 -233 -416l-131 107q51 27 104 84t70 110q-25 -6 -47 -6q-68 0 -114 47t-46 121q0 78 55.5 133t132.5 55q86 0 147.5 -63t61.5 -172z" />
<glyph unicode="-" horiz-adv-x="614" d="M553 365h-492v264h492v-264z" />
<glyph unicode="." horiz-adv-x="552" d="M276.5 -23q-77.5 0 -136 57.5t-58.5 135.5q0 76 58.5 133t136 57t135 -56t57.5 -134t-57.5 -135.5t-135 -57.5z" />
<glyph unicode="/" horiz-adv-x="708" d="M223 -41h-223l485 1448h224z" />
<glyph unicode="0" horiz-adv-x="1277" d="M639 -25q-145 0 -259 59.5t-184.5 160t-106.5 224.5t-36 263q0 188 61.5 344t198 258t326.5 102t326.5 -102t198 -258t61.5 -344q0 -139 -36 -263t-106.5 -224.5t-184.5 -160t-259 -59.5zM639 287q229 0 229 395q0 393 -229 393t-229 -393q0 -395 229 -395z" />
<glyph unicode="1" horiz-adv-x="915" d="M793 0h-353v915l-229 -231l-201 211l477 471h306v-1366z" />
<glyph unicode="2" horiz-adv-x="1243" d="M1161 0h-1071v274q455 328 579 444t124 216q0 66 -54.5 103.5t-134.5 37.5q-205 0 -364 -149l-195 233q104 115 251.5 171t301.5 56q244 0 398.5 -124.5t154.5 -327.5q0 -156 -114.5 -300.5t-374.5 -326.5h499v-307z" />
<glyph unicode="3" horiz-adv-x="1232" d="M598 -25q-188 0 -333.5 58.5t-231.5 156.5l178 240q72 -70 175 -106.5t198 -36.5q111 0 170 36.5t59 96.5q0 61 -54 89t-190 28q-143 0 -184 -5v314q27 -2 184 -2q221 0 222 106q0 61 -63.5 93t-166.5 32q-193 0 -340 -131l-170 221q201 221 547 221q258 0 400.5 -101 t142.5 -273q0 -117 -87 -202t-212 -105q123 -12 222 -99.5t99 -224.5q0 -180 -155.5 -293t-409.5 -113z" />
<glyph unicode="4" horiz-adv-x="1261" d="M1053 0h-355v250h-653v274l518 842h490v-807h166v-309h-166v-250zM698 559v500l-311 -500h311z" />
<glyph unicode="5" horiz-adv-x="1263" d="M633 -25q-346 0 -549 199l190 248q145 -135 355 -135q106 0 164.5 45t58.5 112q0 72 -55.5 115t-157.5 43q-162 0 -270 -102l-244 59v807h991v-307h-639v-264q113 109 293 108q182 0 311 -122t129 -322q0 -221 -155.5 -352.5t-421.5 -131.5z" />
<glyph unicode="6" horiz-adv-x="1263" d="M674 -25q-309 0 -465 196t-156 509q0 326 183.5 516t494.5 190q246 0 414 -131l-152 -270q-111 90 -262 90q-131 0 -226 -87t-95 -224v-16q51 70 143 112.5t192 42.5q197 0 335.5 -119.5t138.5 -328.5q0 -211 -153.5 -345.5t-391.5 -134.5zM651 287q94 0 152.5 47 t58.5 108q0 80 -66.5 121t-156.5 41q-143 0 -229 -92q8 -94 67 -159.5t174 -65.5z" />
<glyph unicode="7" horiz-adv-x="1146" d="M633 0h-387l463 1059h-666v307h1071v-244z" />
<glyph unicode="8" horiz-adv-x="1265" d="M633 -25q-242 0 -411 98.5t-169 286.5q0 113 77 205t200 140q-254 96 -254 317q0 125 86 210t206.5 119.5t264 34.5t264.5 -34.5t207 -119.5t86 -210q0 -221 -256 -317q125 -47 201.5 -139.5t76.5 -205.5q0 -127 -85 -217t-212.5 -129t-281.5 -39zM633 842 q76 10 136 41.5t60 79.5q0 53 -53 82.5t-143 29.5t-144.5 -29.5t-54.5 -82.5q0 -47 61.5 -79t137.5 -42zM633 287q96 0 158.5 33.5t62.5 89t-70.5 90.5t-150.5 45q-82 -10 -151.5 -45t-69.5 -90.5t61.5 -89t159.5 -33.5z" />
<glyph unicode="9" horiz-adv-x="1263" d="M532 -23q-246 0 -413 132l151 270q111 -90 262 -90q145 0 232.5 91t87.5 220v16q-49 -70 -141.5 -112.5t-192.5 -42.5q-197 0 -336 119.5t-139 328.5t153.5 344.5t391.5 135.5q309 0 464.5 -196t155.5 -509q0 -326 -182.5 -516.5t-493.5 -190.5zM623 760q143 0 229 92 q-6 94 -65.5 159.5t-178.5 65.5q-92 0 -149.5 -47t-57.5 -108q0 -80 67 -121t155 -41z" />
<glyph unicode=":" horiz-adv-x="524" d="M276.5 618q-77.5 0 -136 57.5t-58.5 135.5t58.5 135.5t136 57.5t135 -57.5t57.5 -135.5t-57.5 -135.5t-135 -57.5zM276.5 -23q-77.5 0 -136 57.5t-58.5 135.5q0 76 58.5 133t136 57t135 -56t57.5 -134t-57.5 -135.5t-135 -57.5z" />
<glyph unicode=";" horiz-adv-x="548" d="M276.5 618q-77.5 0 -136 58.5t-58.5 136.5t58.5 134.5t136 56.5t135 -56.5t57.5 -134.5t-57.5 -136.5t-135 -58.5zM479 135q0 -252 -233 -416l-131 107q51 27 104 84t70 110q-25 -6 -47 -6q-68 0 -114 47.5t-46 120.5q0 78 55.5 133.5t132.5 55.5q86 0 147.5 -63.5 t61.5 -172.5z" />
<glyph unicode="&#x3c;" horiz-adv-x="1038" d="M979 184l-920 387v228l920 389v-223l-705 -281l705 -276v-224z" />
<glyph unicode="=" horiz-adv-x="1038" d="M979 780h-920v189h920v-189zM979 399h-920v189h920v-189z" />
<glyph unicode="&#x3e;" horiz-adv-x="1038" d="M979 571l-920 -387v224l707 276l-707 281v223l920 -389v-228z" />
<glyph unicode="?" horiz-adv-x="927" d="M340 438q-61 74 -61 189q0 63 27.5 115.5t65.5 85t76.5 59t66.5 54.5t28 54q0 80 -121 80q-123 0 -215 -106l-197 225q82 94 202 143t249 49q201 0 319.5 -90t118.5 -237q0 -82 -32.5 -145.5t-79 -103.5t-93.5 -72.5t-79.5 -69.5t-32.5 -78q0 -51 30 -82zM465 -23 q-78 0 -135.5 57.5t-57.5 135.5t57.5 134t135.5 56t135 -56t57 -134t-57 -135.5t-135 -57.5z" />
<glyph unicode="@" horiz-adv-x="1603" d="M721 -143q-279 0 -464 185t-185 458q0 324 245.5 565.5t567.5 241.5q289 0 467 -179.5t178 -437.5q0 -127 -41 -229.5t-106.5 -162.5t-139.5 -92t-143 -32q-88 0 -139.5 41t-65.5 102l-4 15q-53 -76 -128 -117t-151 -41q-150 0 -235.5 98.5t-85.5 251.5q0 199 138 347.5 t316 148.5q172 0 254 -127l19 98h278l-100 -471q-4 -20 -4 -51q0 -86 65 -86q68 0 123.5 81t55.5 228q0 240 -151.5 384.5t-407.5 144.5q-289 0 -504 -214t-215 -501q0 -242 162.5 -403.5t410.5 -161.5q193 0 369 110l47 -65q-201 -129 -426 -129zM727 393q106 0 188 109 l46 217q-45 82 -144 82q-104 0 -171.5 -76t-67.5 -176q0 -72 39.5 -114t109.5 -42z" />
<glyph unicode="A" horiz-adv-x="1427" d="M1450 0h-399l-68 197h-539l-67 -197h-400l515 1366h444zM887 504l-172 514l-174 -514h346z" />
<glyph unicode="B" horiz-adv-x="1392" d="M922 0h-799v1366h774q193 0 296 -103.5t103 -244.5q0 -123 -66.5 -207t-166.5 -106q111 -16 185.5 -111.5t74.5 -222.5q0 -158 -104 -264.5t-297 -106.5zM817 846q55 0 88 28.5t33 77.5t-34 78t-87 29h-342v-213h342zM829 307q63 0 99.5 31t36.5 86q0 51 -36 83t-100 32 h-354v-232h354z" />
<glyph unicode="C" horiz-adv-x="1417" d="M793 -25q-317 0 -528.5 198t-211.5 509q0 313 210 510t530 197q227 0 372.5 -104.5t223.5 -260.5l-304 -145q-35 84 -115.5 141t-176.5 57q-166 0 -273.5 -112.5t-107.5 -282.5q0 -168 107.5 -281.5t273.5 -113.5q96 0 177 57t115 141l304 -143q-78 -156 -224.5 -261.5 t-371.5 -105.5z" />
<glyph unicode="D" horiz-adv-x="1488" d="M698 0h-575v1366h573q328 0 534 -184.5t206 -497.5t-206 -498.5t-532 -185.5zM696 307q174 0 276.5 109.5t102.5 267.5q0 166 -98 270.5t-279 104.5h-223v-752h221z" />
<glyph unicode="E" d="M1124 0h-1001v1366h1001v-307h-649v-213h635v-307h-635v-232h649v-307z" />
<glyph unicode="F" horiz-adv-x="1191" d="M475 0h-352v1366h1001v-307h-649v-213h635v-307h-635v-539z" />
<glyph unicode="G" horiz-adv-x="1480" d="M793 -25q-313 0 -526.5 195t-213.5 512t213 512t527 195q213 0 358 -94.5t225 -237.5l-295 -154q-41 74 -117.5 124t-170.5 50q-166 0 -273.5 -112.5t-107.5 -282.5q0 -168 107.5 -281.5t273.5 -113.5q72 0 142.5 24.5t108.5 57.5v106h-307v309h660v-542 q-239 -267 -604 -267z" />
<glyph unicode="H" horiz-adv-x="1517" d="M1395 0h-353v549h-567v-549h-352v1366h352v-510h567v510h353v-1366z" />
<glyph unicode="I" horiz-adv-x="598" d="M475 0h-352v1366h352v-1366z" />
<glyph unicode="J" horiz-adv-x="1007" d="M381 -25q-236 0 -375 123l148 269q96 -80 196 -80q84 0 133 50t49 136v893h353v-897q0 -246 -135.5 -370t-368.5 -124z" />
<glyph unicode="K" horiz-adv-x="1339" d="M1358 0h-432l-359 514l-92 -115v-399h-352v1366h352v-561l420 561h434l-530 -639z" />
<glyph unicode="L" horiz-adv-x="1075" d="M1018 0h-901v1366h352v-1059h549v-307z" />
<glyph unicode="M" horiz-adv-x="1796" d="M1673 0h-352v903l-344 -903h-156l-346 903v-903h-352v1366h489l287 -754l285 754h489v-1366z" />
<glyph unicode="N" horiz-adv-x="1515" d="M1393 0h-340l-578 791v-791h-352v1366h362l553 -752v752h355v-1366z" />
<glyph unicode="O" horiz-adv-x="1568" d="M784.5 -25q-315.5 0 -523.5 199t-208 508t208 508t523.5 199t522 -199t206.5 -508t-206.5 -508t-522 -199zM784 287q166 0 268.5 112.5t102.5 282.5t-102.5 282.5t-268.5 112.5t-269 -112.5t-103 -282.5t103 -282.5t269 -112.5z" />
<glyph unicode="P" horiz-adv-x="1316" d="M475 0h-352v1366h684q221 0 348 -130t127 -325q0 -193 -127 -322.5t-348 -129.5h-332v-459zM754 766q74 0 122 39t48 106.5t-48.5 107.5t-121.5 40h-279v-293h279z" />
<glyph unicode="Q" horiz-adv-x="1568" d="M784 -25q-315 0 -523 199t-208 508t208 508t523.5 199t522 -199t206.5 -508q0 -281 -172 -473l86 -105l-243 -196l-103 123q-143 -56 -297 -56zM784 287q45 0 80 8l-125 151l244 197l129 -156q43 92 43 195q0 170 -102.5 282.5t-268.5 112.5t-269 -112.5t-103 -282.5 t103 -282.5t269 -112.5z" />
<glyph unicode="R" horiz-adv-x="1353" d="M1288 0h-403l-230 459h-180v-459h-352v1366h684q221 0 348 -129t127 -326q0 -164 -80 -267t-192 -142zM754 766q74 0 122 39t48 108q0 68 -48.5 107t-121.5 39h-279v-293h279z" />
<glyph unicode="S" horiz-adv-x="1241" d="M631 -25q-375 0 -606 218l186 274q180 -180 438 -180q90 0 141.5 28.5t51.5 79.5q0 41 -57.5 67.5t-143.5 40t-185.5 42t-185.5 68.5t-143 128t-57 211q0 182 145 308t397 126q334 0 555 -190l-192 -264q-170 143 -400 143q-147 0 -147 -94q0 -45 80 -71.5t193.5 -50 t226 -61.5t192.5 -131.5t80 -234.5q0 -209 -149.5 -333t-419.5 -124z" />
<glyph unicode="T" d="M780 0h-352v1059h-383v307h1116v-307h-381v-1059z" />
<glyph unicode="U" horiz-adv-x="1536" d="M770 -25q-317 0 -482 158t-165 420v813h358v-801q0 -125 75 -201.5t214 -76.5q137 0 212 76.5t75 201.5v801h356v-811q0 -266 -163 -423t-480 -157z" />
<glyph unicode="V" horiz-adv-x="1427" d="M936 0h-444l-515 1366h400l338 -985l336 985h399z" />
<glyph unicode="W" horiz-adv-x="1916" d="M1538 0h-373l-207 856l-206 -856h-373l-391 1366h395l207 -911l233 911h271l233 -911l205 911h397z" />
<glyph unicode="X" horiz-adv-x="1384" d="M1405 0h-416l-297 459l-297 -459h-415l475 700l-445 666h416l266 -428l264 428h418l-444 -664z" />
<glyph unicode="Y" horiz-adv-x="1341" d="M848 0h-352v551l-519 815h398l297 -504l293 504h399l-516 -815v-551z" />
<glyph unicode="Z" horiz-adv-x="1220" d="M1141 0h-1061v281l582 778h-582v307h1046v-279l-583 -780h598v-307z" />
<glyph unicode="[" horiz-adv-x="612" d="M575 -389h-471v1778h471v-203h-249v-1372h249v-203z" />
<glyph unicode="\" horiz-adv-x="708" d="M485 -41l-485 1448h223l486 -1448h-224z" />
<glyph unicode="]" horiz-adv-x="612" d="M508 -389h-471v203h250v1372h-250v203h471v-1778z" />
<glyph unicode="^" horiz-adv-x="911" d="M872 682h-223l-192 473l-191 -473h-227l305 684h227z" />
<glyph unicode="_" horiz-adv-x="1155" d="M1161 -285h-1167v203h1167v-203z" />
<glyph unicode="`" horiz-adv-x="538" d="M539 1139h-213l-326 295h279z" />
<glyph unicode="&#x2cb;" horiz-adv-x="538" d="M539 1139h-213l-326 295h279z" />
<glyph unicode="a" horiz-adv-x="1128" d="M1014 0h-316v98q-47 -55 -130 -89t-177 -34q-129 0 -234.5 86t-105.5 240q0 164 102.5 242t237.5 78q213 0 307 -117v98q0 66 -53 106t-147 40q-152 0 -277 -107l-117 219q180 154 449 154q94 0 173 -19.5t145.5 -62.5t104.5 -123t38 -191v-618zM522 182q127 0 176 72v88 q-49 70 -176 70q-66 0 -111.5 -30t-45.5 -85t45.5 -85t111.5 -30z" />
<glyph unicode="b" horiz-adv-x="1210" d="M430 342q29 -39 83 -63.5t105 -24.5q96 0 158 65.5t62 176.5q0 109 -61.5 174t-158.5 65q-51 0 -105 -25.5t-83 -64.5v-303zM430 0h-315v1366h315v-494q113 141 293 142q190 0 313 -140.5t123 -377.5q0 -244 -123 -382.5t-313 -138.5q-172 0 -293 140v-115z" />
<glyph unicode="c" horiz-adv-x="1024" d="M590 -25q-233 0 -386 145.5t-153 375t152.5 374t386.5 144.5q147 0 250.5 -53.5t154.5 -129.5l-204 -190q-63 94 -187 94q-100 0 -165.5 -64.5t-65.5 -175t65.5 -176t165.5 -65.5q119 0 187 96l204 -192q-51 -76 -154.5 -129.5t-250.5 -53.5z" />
<glyph unicode="d" horiz-adv-x="1210" d="M1094 0h-314v115q-121 -139 -293 -140q-190 0 -313 138.5t-123 382.5q0 238 123 378t313 140q180 0 293 -142v494h314v-1366zM590 254q51 0 105.5 25.5t84.5 64.5v303q-31 39 -85 63.5t-105 24.5q-96 0 -156.5 -65.5t-60.5 -174t61.5 -175t155.5 -66.5z" />
<glyph unicode="e" horiz-adv-x="1122" d="M590 -25q-233 0 -386 142.5t-153 378.5q0 219 147.5 368.5t376.5 149.5q223 0 364.5 -150.5t141.5 -400.5v-72h-704q18 -72 81.5 -117t166.5 -45q57 0 128.5 23.5t112.5 60.5l138 -207q-72 -63 -183.5 -97t-230.5 -34zM780 606q-8 61 -57 107.5t-148 46.5q-94 0 -143 -45 t-59 -109h407z" />
<glyph unicode="f" horiz-adv-x="714" d="M498 0h-316v717h-164v272h164v23q0 174 98.5 274t256.5 100q184 0 282 -92l-114 -196q-39 35 -103 35q-45 0 -74.5 -31t-29.5 -90v-23h200v-272h-200v-717z" />
<glyph unicode="g" horiz-adv-x="1208" d="M526 -401q-258 0 -438 147l137 221q109 -115 301 -114q98 0 175 53t77 180v76q-121 -145 -293 -146q-190 0 -312 129t-122 371q0 238 121 368t313 130q178 0 293 -142v117h316v-903q0 -115 -36 -204t-92.5 -141t-134 -86t-151.5 -45t-154 -11zM590 295q51 0 105.5 24.5 t82.5 63.5v264q-29 39 -83 63.5t-105 24.5q-96 0 -156.5 -57t-60.5 -162q0 -106 60.5 -163.5t156.5 -57.5z" />
<glyph unicode="h" horiz-adv-x="1216" d="M1102 0h-316v575q0 160 -163 160q-113 0 -191 -96v-639h-315v1366h315v-498q125 145 342 146q164 0 246 -83t82 -226v-705z" />
<glyph unicode="i" horiz-adv-x="544" d="M272.5 1077q-75.5 0 -128 53.5t-52.5 129t52.5 128t128 52.5t129 -52.5t53.5 -128t-53.5 -129t-129 -53.5zM430 0h-315v989h315v-989z" />
<glyph unicode="j" horiz-adv-x="544" d="M272.5 1077q-75.5 0 -128 53.5t-52.5 129t52.5 128t128 52.5t129 -52.5t53.5 -128t-53.5 -129t-129 -53.5zM47 -401q-96 0 -147.5 15t-112.5 54l80 230q53 -45 127 -45q121 0 121 155v981h315v-981q0 -188 -96.5 -298.5t-286.5 -110.5z" />
<glyph unicode="k" horiz-adv-x="1118" d="M1130 0h-389l-217 350l-94 -112v-238h-315v1366h315v-772l301 395h381l-364 -450z" />
<glyph unicode="l" horiz-adv-x="544" d="M430 0h-315v1366h315v-1366z" />
<glyph unicode="m" horiz-adv-x="1792" d="M1675 0h-313v602q0 133 -131 133q-106 0 -178 -96v-639h-316v602q0 133 -129 133q-100 0 -178 -96v-639h-315v989h315v-121q39 51 129 98.5t197 47.5q219 0 280 -176q47 72 140.5 124t201.5 52q141 0 219 -75t78 -222v-717z" />
<glyph unicode="n" horiz-adv-x="1214" d="M1100 0h-316v571q0 164 -161 164q-115 0 -193 -96v-639h-315v989h315v-121q125 145 344 146q162 0 244 -85t82 -229v-700z" />
<glyph unicode="o" horiz-adv-x="1179" d="M588 -25q-244 0 -390.5 152t-146.5 369t146.5 367.5t390.5 150.5q246 0 393 -150.5t147 -367.5t-147 -369t-393 -152zM588 254q100 0 158.5 68.5t58.5 173.5q0 102 -58.5 170.5t-158.5 68.5q-98 0 -155.5 -68.5t-57.5 -170.5q0 -104 57.5 -173t155.5 -69z" />
<glyph unicode="p" d="M723 -25q-174 0 -293 142v-494h-315v1366h315v-115q115 139 293 140q193 0 313.5 -137.5t120.5 -380.5q0 -246 -120.5 -383.5t-313.5 -137.5zM618 254q94 0 156 65.5t62 176.5q0 109 -61.5 174t-156.5 65q-51 0 -105 -25.5t-83 -64.5v-301q29 -39 83 -64.5t105 -25.5z " />
<glyph unicode="q" d="M590 254q49 0 104.5 25.5t81.5 64.5v301q-29 39 -83 64.5t-103 25.5q-96 0 -157.5 -65.5t-61.5 -173.5q0 -111 61.5 -176.5t157.5 -65.5zM485 -25q-193 0 -314.5 137.5t-121.5 383.5q0 244 122 381t314 137q176 0 291 -140v115h316v-1366h-316v494q-117 -142 -291 -142z " />
<glyph unicode="r" horiz-adv-x="768" d="M430 0h-315v989h315v-121q51 61 137 104.5t172 43.5v-303q-25 8 -77 8q-66 0 -134.5 -25.5t-97.5 -64.5v-631z" />
<glyph unicode="s" horiz-adv-x="991" d="M496 -25q-133 0 -260 42t-205 112l131 225q57 -51 160.5 -92t187.5 -41q133 0 133 70q0 33 -59.5 49t-143.5 29.5t-169 39t-144 96t-59 183.5q0 137 113.5 231.5t310.5 94.5q233 0 413 -131l-121 -224q-47 45 -126.5 77t-163.5 32q-55 0 -89 -19.5t-34 -48t59 -43 t143 -30t168 -43t143.5 -100t59.5 -185.5q0 -143 -119.5 -233.5t-328.5 -90.5z" />
<glyph unicode="t" horiz-adv-x="737" d="M489 -25q-152 0 -230.5 74t-78.5 217v451h-164v272h164v271h316v-271h200v-272h-200v-363q0 -43 23.5 -71.5t62.5 -28.5q59 0 80 25l61 -238q-70 -66 -234 -66z" />
<glyph unicode="u" horiz-adv-x="1212" d="M1098 0h-316v119q-127 -143 -342 -144q-162 0 -243.5 84t-81.5 226v704h315v-573q0 -162 164 -162q113 0 188 96v639h316v-989z" />
<glyph unicode="v" horiz-adv-x="1073" d="M705 0h-336l-389 989h331l226 -627l223 627h334z" />
<glyph unicode="w" horiz-adv-x="1611" d="M1331 0h-340l-186 612l-184 -612h-340l-293 989h323l160 -606l195 606h280l195 -606l157 606h326z" />
<glyph unicode="x" horiz-adv-x="1048" d="M1061 0h-346l-189 299l-194 -299h-344l338 508l-318 481h346l170 -268l168 268h346l-315 -481z" />
<glyph unicode="y" horiz-adv-x="1073" d="M94 -385l45 281q33 -18 78 -19q111 0 135 55l23 54l-395 1003h331l226 -627l223 627h334l-447 -1130q-55 -145 -157.5 -200.5t-260.5 -59.5q-82 0 -135 16z" />
<glyph unicode="z" horiz-adv-x="989" d="M911 0h-833v233l397 484h-397v272h825v-223l-405 -494h413v-272z" />
<glyph unicode="{" horiz-adv-x="618" d="M584 -389h-123q-143 0 -245.5 96t-102.5 256v318q0 59 -28 97t-79 38v168q51 0 79 37.5t28 97.5v317q0 158 102 255.5t246 97.5h123v-203h-123q-53 0 -90 -41t-37 -109v-352q0 -143 -94 -184q94 -41 94 -185v-352q0 -66 37 -107.5t90 -41.5h123v-203z" />
<glyph unicode="|" horiz-adv-x="448" d="M326 -41h-203v1448h203v-1448z" />
<glyph unicode="}" horiz-adv-x="618" d="M35 -389v203h123q53 0 90 42t37 107v352q0 143 94 185q-94 41 -94 184v352q0 68 -37 109t-90 41h-123v203h123q143 0 245.5 -97.5t102.5 -255.5v-317q0 -59 27.5 -97t78.5 -38v-168q-51 0 -78.5 -38t-27.5 -97v-318q0 -160 -102.5 -256t-245.5 -96h-123z" />
<glyph unicode="~" horiz-adv-x="1052" d="M795 1366l206 -25q-8 -106 -24 -185t-49 -157.5t-94.5 -121.5t-147.5 -43q-92 0 -148.5 54t-72.5 118.5t-40 119t-56 54.5q-78 0 -107 -349l-209 25q6 82 16.5 147.5t34 136t56.5 118t86 78t123 30.5q92 0 148 -54.5t72.5 -120t40 -119.5t56.5 -54q82 0 109 348z" />
<glyph unicode="&#xa1;" horiz-adv-x="546" d="M86 -377l45 889h281l51 -889h-377zM82 821q0 78 56.5 134.5t134 56.5t134 -56.5t56.5 -134.5t-56.5 -135t-134 -57t-134 57t-56.5 135z" />
<glyph unicode="&#xa2;" horiz-adv-x="1024" d="M481 -205v191q-193 33 -311.5 170t-118.5 340q0 201 119 338t311 170v153h224v-153q195 -35 290 -173l-204 -190q-37 51 -86 74v-439q49 23 86 74l204 -192q-98 -139 -290 -172v-191h-224zM373 496q0 -147 108 -211v417q-108 -63 -108 -206z" />
<glyph unicode="&#xa3;" horiz-adv-x="1157" d="M49 551v197h109q-68 113 -68 204q0 197 160 315.5t354 118.5q375 0 508 -256l-281 -161q-23 63 -71.5 98t-110.5 35q-76 0 -125 -44t-49 -112q0 -18 4 -38.5t6 -33t13.5 -35t13.5 -28.5t17.5 -33.5t17.5 -29.5h284v-197h-225v-14q0 -61 -34.5 -119t-88.5 -88q43 16 99 16 q59 0 131.5 -29.5t117.5 -29.5q115 0 166 71l138 -278q-96 -104 -316 -105q-96 0 -211.5 44t-161.5 44q-98 0 -235 -77l-117 235q199 100 199 225q0 53 -23 105h-221z" />
<glyph unicode="&#xa4;" horiz-adv-x="1069" d="M995 281l-59 -60l-115 117q-123 -104 -286.5 -104.5t-286.5 104.5l-117 -117l-57 60l114 114q-102 129 -102 287q0 162 102 287l-114 116l57 58l117 -115q121 102 287 102q162 0 286 -102l115 115l59 -58l-114 -116q102 -125 102 -287q0 -158 -102 -287zM885 682 q0 145 -102.5 247.5t-248 102.5t-248 -102.5t-102.5 -247.5t102.5 -247.5t248 -102.5t248 102.5t102.5 247.5z" />
<glyph unicode="&#xa5;" horiz-adv-x="1341" d="M848 0h-352v227h-447v189h447v135h-447v188h326l-398 627h398l297 -504l293 504h399l-397 -627h327v-188h-446v-135h446v-189h-446v-227z" />
<glyph unicode="&#xa6;" horiz-adv-x="448" d="M326 -41h-203v647h203v-647zM326 760h-203v647h203v-647z" />
<glyph unicode="&#xa7;" horiz-adv-x="1007" d="M944 678q0 -82 -43 -151.5t-121 -110.5q164 -76 164 -252q0 -154 -126 -242t-322 -88q-270 0 -459 162l125 199q59 -57 151.5 -101.5t182.5 -44.5q147 0 147 86q0 45 -59.5 70.5t-143.5 43t-169 45.5t-144 96.5t-59 176.5q0 92 56 158t126 94q-182 78 -182 262 q0 133 119.5 219t301.5 86q262 0 414 -135l-119 -186q-117 106 -278 106q-135 0 -135 -84q0 -39 59 -60t143 -36.5t168 -42t143.5 -94t59.5 -176.5zM635 614q0 96 -141 129q-123 -27 -123 -125q0 -96 168 -129q96 39 96 125z" />
<glyph unicode="&#xa8;" horiz-adv-x="626" d="M694 1260q0 -68 -47 -115t-115 -47q-66 0 -112.5 47t-46.5 115q0 66 47 112.5t112 46.5q68 0 115 -46.5t47 -112.5zM256 1260q0 -68 -47 -115t-115 -47q-66 0 -113 47t-47 115q0 66 47.5 112.5t112.5 46.5q68 0 115 -46.5t47 -112.5z" />
<glyph unicode="&#xa9;" horiz-adv-x="1593" d="M1503 684q0 -293 -206.5 -500t-499.5 -207t-500 208t-207 499q0 293 207 500t500 207t499.5 -207t206.5 -500zM1423 684q0 260 -183 443.5t-443 183.5q-258 0 -442.5 -183.5t-184.5 -443.5q0 -258 184.5 -442.5t442.5 -184.5q260 0 443 184.5t183 442.5zM1047 463l71 -68 q-121 -141 -307 -141q-178 0 -302 123t-124 309q0 184 124 306t302 122q188 0 305 -137l-69 -70q-88 119 -236 119q-135 0 -229.5 -96t-94.5 -244q0 -145 94.5 -244.5t229.5 -99.5q146 0 236 121z" />
<glyph unicode="&#xaa;" horiz-adv-x="796" d="M702 668h-223v63q-66 -80 -203 -80q-88 0 -156.5 55.5t-68.5 156t68.5 153.5t156.5 53q139 0 203 -72v64q0 45 -33.5 72.5t-95.5 27.5q-102 0 -182 -80l-80 146q125 100 301 100q313 0 313 -270v-389zM371 788q76 0 108 50v51q-31 47 -108 47q-98 0 -98 -74t98 -74z" />
<glyph unicode="&#xab;" horiz-adv-x="1169" d="M1108 129h-285l-327 369l327 362h285l-328 -362zM674 129h-285l-328 369l328 362h285l-328 -362z" />
<glyph unicode="&#xac;" horiz-adv-x="1067" d="M979 969v-570h-193v381h-727v189h920z" />
<glyph unicode="&#xad;" horiz-adv-x="614" d="M553 365h-492v264h492v-264z" />
<glyph unicode="&#xae;" horiz-adv-x="1011" d="M940 952q0 -180 -127 -307t-307 -127t-307 127t-127 307.5t127 307t307 126.5q182 0 308 -126t126 -308zM872 952q0 154 -107.5 260.5t-259 106.5t-259 -106.5t-107.5 -260.5q0 -152 107.5 -259t259 -107t259 107t107.5 259zM713 702h-90l-129 197h-82v-197h-74v498h203 q66 0 116 -43t50 -108q0 -72 -46.5 -110t-80.5 -38zM631 1049q0 39 -28 64.5t-62 25.5h-129v-176h129q35 0 62.5 24.5t27.5 61.5z" />
<glyph unicode="&#xaf;" horiz-adv-x="743" d="M743 1210h-743v174h743v-174z" />
<glyph unicode="&#x203e;" horiz-adv-x="743" d="M743 1210h-743v174h743v-174z" />
<glyph unicode="&#xb0;" horiz-adv-x="657" d="M618 1096q0 -121 -84.5 -206t-205.5 -85t-205 85t-84 206t85 205.5t203.5 84.5t204.5 -84.5t86 -205.5zM457 1095.5q0 51.5 -38 90.5t-91 39q-51 0 -88 -38t-37 -91q0 -51 35.5 -88t89 -37t91.5 36.5t38 88z" />
<glyph unicode="&#xb1;" horiz-adv-x="1038" d="M979 670h-356v-406h-207v406h-357v188h357v389h207v-389h356v-188zM979 0h-920v188h920v-188z" />
<glyph unicode="&#xb2;" horiz-adv-x="823" d="M758 862h-668v170q274 193 351 261.5t77 119.5q0 45 -32.5 70.5t-88.5 25.5q-66 0 -126 -30.5t-93 -69.5l-119 147q127 137 344 138q158 0 253.5 -70t95.5 -192q0 -88 -73 -174.5t-251 -210.5h330v-185z" />
<glyph unicode="&#xb3;" horiz-adv-x="823" d="M764 1092q0 -109 -97.5 -176.5t-256.5 -67.5q-238 0 -353 129l111 151q94 -96 231 -96q63 0 98 21.5t35 54.5q0 47 -41.5 63.5t-123.5 16.5q-84 0 -97 -2v180q18 -2 95 -2q82 0 117.5 16.5t35.5 57.5q0 72 -133 71q-127 0 -213 -86l-104 138q123 133 342 133 q164 0 252 -61.5t88 -164.5q0 -68 -52.5 -120t-130.5 -64q76 -6 136.5 -58t60.5 -134z" />
<glyph unicode="&#xb4;" horiz-adv-x="538" d="M539 1434l-326 -295h-213l260 295h279z" />
<glyph unicode="&#xb5;" horiz-adv-x="1212" d="M430 -377h-315v1366h315v-592q8 -143 164 -143q113 0 188 96v639h316v-989h-316v119q-127 -143 -342 -144h-10v-352z" />
<glyph unicode="&#x3bc;" horiz-adv-x="1212" d="M430 -377h-315v1366h315v-592q8 -143 164 -143q113 0 188 96v639h316v-989h-316v119q-127 -143 -342 -144h-10v-352z" />
<glyph unicode="&#xb6;" horiz-adv-x="919" d="M850 -205h-145v1426h-152v-1426h-145v867q-145 0 -249 103t-104 248.5t103.5 249t249.5 103.5h442v-1571z" />
<glyph unicode="&#xb7;" horiz-adv-x="552" d="M467 500q0 -78 -56.5 -134.5t-134 -56.5t-135 56.5t-57.5 134.5t57.5 135t135 57t134 -57t56.5 -135z" />
<glyph unicode="&#x2219;" horiz-adv-x="552" d="M467 500q0 -78 -56.5 -134.5t-134 -56.5t-135 56.5t-57.5 134.5t57.5 135t135 57t134 -57t56.5 -135z" />
<glyph unicode="&#xb8;" horiz-adv-x="468" d="M233 -406q-150 0 -233 68l57 119q84 -61 168 -62q39 0 68 15.5t29 42.5q0 45 -52 45q-37 0 -59 -27l-107 62l62 166h145l-51 -123q35 20 70 20q57 0 98 -42t41 -105q0 -82 -68 -130.5t-168 -48.5z" />
<glyph unicode="&#xb9;" horiz-adv-x="636" d="M514 862h-233v522l-142 -141l-131 139l305 299h201v-819z" />
<glyph unicode="&#xba;" horiz-adv-x="829" d="M414 651q-164 0 -263.5 98.5t-99.5 239.5t99.5 239.5t263.5 98.5q166 0 265 -98.5t99 -239.5t-99 -239.5t-265 -98.5zM414 829q63 0 99 42t36 118t-36 116t-99 40q-131 0 -131 -156q0 -76 35 -118t96 -42z" />
<glyph unicode="&#xbb;" horiz-adv-x="1169" d="M674 498l-328 -369h-285l328 369l-328 362h285zM1108 498l-328 -369h-284l327 369l-327 362h284z" />
<glyph unicode="&#xbc;" horiz-adv-x="1771" d="M1366 1366l-877 -1366h-176l873 1366h180zM1735 160h-103v-160h-231v160h-404v157l308 502h327v-477h103v-182zM1401 342v283l-174 -283h174zM514 547h-233v522l-142 -141l-131 139l305 299h201v-819z" />
<glyph unicode="&#xbd;" horiz-adv-x="1837" d="M1366 1366l-877 -1366h-176l873 1366h180zM1772 0h-668v170q274 193 351 261.5t77 119.5q0 45 -33 70.5t-88 25.5q-63 0 -124.5 -30.5t-94.5 -69.5l-119 147q127 137 344 137q158 0 253 -69.5t95 -192.5q0 -88 -72.5 -174t-250.5 -211h330v-184zM514 547h-233v522 l-142 -141l-131 139l305 299h201v-819z" />
<glyph unicode="&#xbe;" horiz-adv-x="1929" d="M1524 1366l-877 -1366h-176l872 1366h181zM1892 160h-102v-160h-231v160h-404v157l307 502h328v-477h102v-182zM1559 342v283l-175 -283h175zM764 776q0 -109 -97.5 -176.5t-256.5 -67.5q-238 0 -353 130l111 151q94 -96 231 -96q63 0 98 21.5t35 54.5q0 47 -41.5 63 t-123.5 16q-84 0 -97 -2v181q18 -2 95 -2q82 0 117.5 16t35.5 57q0 72 -133 72q-127 0 -213 -86l-104 137q123 133 342 133q164 0 252 -61.5t88 -163.5q0 -68 -52.5 -120t-130.5 -64q76 -6 136.5 -58.5t60.5 -134.5z" />
<glyph unicode="&#xbf;" horiz-adv-x="817" d="M588 549q61 -72 61 -187q0 -66 -27.5 -117.5t-66.5 -84.5t-77 -59.5t-65.5 -54.5t-27.5 -54q0 -78 121 -78t215 104l197 -225q-82 -94 -202 -143t-249 -49q-201 0 -319.5 90t-118.5 237q0 82 32.5 146.5t79.5 103.5t93.5 72t79 69.5t32.5 79.5q0 51 -31 82zM463 1012 q78 0 135 -57.5t57 -135.5t-57 -134t-135 -56t-135.5 56t-57.5 134t57.5 135.5t135.5 57.5z" />
<glyph unicode="&#xc0;" horiz-adv-x="1427" d="M901 1491h-213l-326 295h279zM1450 0h-399l-68 197h-539l-67 -197h-400l515 1366h444zM887 504l-172 514l-174 -514h346z" />
<glyph unicode="&#xc1;" horiz-adv-x="1427" d="M1071 1786l-326 -295h-213l261 295h278zM1450 0h-399l-68 197h-539l-67 -197h-400l515 1366h444zM887 504l-172 514l-174 -514h346z" />
<glyph unicode="&#xc2;" horiz-adv-x="1427" d="M1042 1491h-188l-141 166l-133 -166h-189l184 295h277zM1450 0h-399l-68 197h-539l-67 -197h-400l515 1366h444zM887 504l-172 514l-174 -514h346z" />
<glyph unicode="&#xc3;" horiz-adv-x="1427" d="M825 1487q-57 0 -100 28.5t-75 56t-56 27.5q-61 0 -62 -100h-159q0 274 231 275q57 0 100.5 -29t75 -56.5t56.5 -27.5q61 0 61 100h160q-1 -274 -232 -274zM1450 0h-399l-68 197h-539l-67 -197h-400l515 1366h444zM887 504l-172 514l-174 -514h346z" />
<glyph unicode="&#xc4;" horiz-adv-x="1427" d="M1094 1618q0 -68 -47.5 -115t-114.5 -47q-66 0 -113 47t-47 115q0 66 47 113t113 47q68 0 115 -47t47 -113zM655 1618q0 -68 -47 -115t-114 -47q-66 0 -113 47t-47 115q0 66 47 113t113 47q68 0 114.5 -47t46.5 -113zM1450 0h-399l-68 197h-539l-67 -197h-400l515 1366 h444zM887 504l-172 514l-174 -514h346z" />
<glyph unicode="&#xc5;" horiz-adv-x="1427" d="M717 1419q-92 0 -157.5 66.5t-65.5 157t65.5 157t157.5 66.5q90 0 154.5 -66.5t64.5 -157t-64.5 -157t-154.5 -66.5zM717 1559q33 0 57.5 24.5t24.5 59t-24.5 59t-57.5 24.5q-35 0 -59.5 -24.5t-24.5 -59t24.5 -59t59.5 -24.5zM1450 0h-399l-68 197h-539l-67 -197h-400 l515 1366h444zM887 504l-172 514l-174 -514h346z" />
<glyph unicode="&#xc6;" horiz-adv-x="2004" d="M1931 0h-1001v197h-453l-110 -197h-402l819 1366h1147v-307h-649v-213h635v-307h-635v-232h649v-307zM930 504v514l-289 -514h289z" />
<glyph unicode="&#xc7;" horiz-adv-x="1417" d="M780 -397q-150 0 -233 67l57 119q84 -61 168 -61q39 0 67.5 15t28.5 42q0 45 -51 45q-37 0 -59 -27l-107 62l43 117q-283 31 -462 222t-179 478q0 313 210 510t530 197q227 0 372.5 -104.5t223.5 -260.5l-304 -145q-35 84 -115.5 141t-176.5 57q-166 0 -273.5 -112.5 t-107.5 -282.5q0 -168 107.5 -281.5t273.5 -113.5q96 0 177 57t115 141l304 -143q-47 -92 -114 -166t-182.5 -132t-256.5 -67l-29 -69q35 20 70 20q57 0 98 -42t41 -105q0 -82 -68 -130t-168 -48z" />
<glyph unicode="&#xc8;" d="M809 1491h-213l-326 295h279zM1124 0h-1001v1366h1001v-307h-649v-213h635v-307h-635v-232h649v-307z" />
<glyph unicode="&#xc9;" d="M979 1786l-326 -295h-213l260 295h279zM1124 0h-1001v1366h1001v-307h-649v-213h635v-307h-635v-232h649v-307z" />
<glyph unicode="&#xca;" d="M950 1491h-188l-141 166l-134 -166h-188l184 295h277zM1124 0h-1001v1366h1001v-307h-649v-213h635v-307h-635v-232h649v-307z" />
<glyph unicode="&#xcb;" d="M1008 1618q0 -68 -47.5 -115t-114.5 -47q-66 0 -113 47t-47 115q0 66 47 113t113 47q68 0 115 -47t47 -113zM569 1618q0 -68 -47 -115t-114 -47q-66 0 -113 47t-47 115q0 66 47 113t113 47q68 0 114.5 -47t46.5 -113zM1124 0h-1001v1366h1001v-307h-649v-213h635v-307 h-635v-232h649v-307z" />
<glyph unicode="&#xcc;" horiz-adv-x="598" d="M481 1491h-213l-325 295h278zM475 0h-352v1366h352v-1366z" />
<glyph unicode="&#xcd;" horiz-adv-x="598" d="M659 1786l-325 -295h-213l260 295h278zM475 0h-352v1366h352v-1366z" />
<glyph unicode="&#xce;" horiz-adv-x="598" d="M623 1491h-189l-141 166l-133 -166h-189l185 295h276zM475 0h-352v1366h352v-1366z" />
<glyph unicode="&#xcf;" horiz-adv-x="598" d="M680 1616q0 -68 -47 -115t-115 -47q-66 0 -113 47t-47 115q0 66 47.5 113t112.5 47q68 0 115 -47t47 -113zM242 1616q0 -68 -47.5 -115t-114.5 -47q-66 0 -113 47t-47 115q0 66 47 113t113 47q68 0 115 -47t47 -113zM475 0h-352v1366h352v-1366z" />
<glyph unicode="&#xd0;" horiz-adv-x="1536" d="M745 0h-575v543h-154v270h154v553h573q328 0 534 -184.5t206 -497.5t-206 -498.5t-532 -185.5zM809 543h-287v-236h221q174 0 276.5 109.5t102.5 267.5q0 166 -98 270.5t-279 104.5h-223v-246h287v-270z" />
<glyph unicode="&#xd1;" horiz-adv-x="1515" d="M864 1487q-57 0 -100 28.5t-75 56t-56 27.5q-61 0 -62 -100h-159q0 274 231 275q57 0 100 -29t75 -56.5t56 -27.5q61 0 62 100h160q-1 -274 -232 -274zM1393 0h-340l-578 791v-791h-352v1366h362l553 -752v752h355v-1366z" />
<glyph unicode="&#xd2;" horiz-adv-x="1568" d="M975 1491h-213l-326 295h279zM784.5 -25q-315.5 0 -523.5 199t-208 508t208 508t523.5 199t522 -199t206.5 -508t-206.5 -508t-522 -199zM784 287q166 0 268.5 112.5t102.5 282.5t-102.5 282.5t-268.5 112.5t-269 -112.5t-103 -282.5t103 -282.5t269 -112.5z" />
<glyph unicode="&#xd3;" horiz-adv-x="1568" d="M1143 1786l-326 -295h-213l260 295h279zM784.5 -25q-315.5 0 -523.5 199t-208 508t208 508t523.5 199t522 -199t206.5 -508t-206.5 -508t-522 -199zM784 287q166 0 268.5 112.5t102.5 282.5t-102.5 282.5t-268.5 112.5t-269 -112.5t-103 -282.5t103 -282.5t269 -112.5z " />
<glyph unicode="&#xd4;" horiz-adv-x="1568" d="M1116 1491h-188l-142 166l-133 -166h-188l184 295h277zM784.5 -25q-315.5 0 -523.5 199t-208 508t208 508t523.5 199t522 -199t206.5 -508t-206.5 -508t-522 -199zM784 287q166 0 268.5 112.5t102.5 282.5t-102.5 282.5t-268.5 112.5t-269 -112.5t-103 -282.5t103 -282.5 t269 -112.5z" />
<glyph unicode="&#xd5;" horiz-adv-x="1568" d="M895 1487q-57 0 -100 28.5t-75 56t-56 27.5q-61 0 -62 -100h-160q0 274 232 275q57 0 100 -29t75 -56.5t56 -27.5q61 0 62 100h159q0 -274 -231 -274zM784.5 -25q-315.5 0 -523.5 199t-208 508t208 508t523.5 199t522 -199t206.5 -508t-206.5 -508t-522 -199zM784 287 q166 0 268.5 112.5t102.5 282.5t-102.5 282.5t-268.5 112.5t-269 -112.5t-103 -282.5t103 -282.5t269 -112.5z" />
<glyph unicode="&#xd6;" horiz-adv-x="1568" d="M1169 1618q0 -68 -47 -115t-114 -47q-66 0 -113 47t-47 115q0 66 47 113t113 47q68 0 114.5 -47t46.5 -113zM731 1618q0 -68 -47 -115t-115 -47q-66 0 -112.5 47t-46.5 115q0 66 47 113t112 47q68 0 115 -47t47 -113zM784.5 -25q-315.5 0 -523.5 199t-208 508t208 508 t523.5 199t522 -199t206.5 -508t-206.5 -508t-522 -199zM784 287q166 0 268.5 112.5t102.5 282.5t-102.5 282.5t-268.5 112.5t-269 -112.5t-103 -282.5t103 -282.5t269 -112.5z" />
<glyph unicode="&#xd7;" horiz-adv-x="1038" d="M801 270l-281 281l-280 -281l-136 131l283 283l-283 283l136 131l280 -281l281 281l133 -131l-281 -283l281 -283z" />
<glyph unicode="&#xd8;" horiz-adv-x="1568" d="M784 -25q-217 0 -389 99l-59 -74h-246l154 190q-190 195 -191 492q0 309 208 508t523 199q199 0 359 -82l49 59h246l-138 -170q213 -201 213 -514q0 -309 -207 -508t-522 -199zM784 287q166 0 268.5 112.5t102.5 282.5q0 139 -72 244l-481 -594q84 -45 182 -45zM412 682 q0 -123 53 -217l469 582q-68 31 -150 30q-166 0 -269 -112.5t-103 -282.5z" />
<glyph unicode="&#xd9;" horiz-adv-x="1536" d="M958 1491h-213l-325 295h278zM770 -25q-317 0 -482 158t-165 420v813h358v-801q0 -125 75 -201.5t214 -76.5q137 0 212 76.5t75 201.5v801h356v-811q0 -266 -163 -423t-480 -157z" />
<glyph unicode="&#xda;" horiz-adv-x="1536" d="M1128 1786l-325 -295h-213l260 295h278zM770 -25q-317 0 -482 158t-165 420v813h358v-801q0 -125 75 -201.5t214 -76.5q137 0 212 76.5t75 201.5v801h356v-811q0 -266 -163 -423t-480 -157z" />
<glyph unicode="&#xdb;" horiz-adv-x="1536" d="M1110 1491h-188l-142 166l-133 -166h-188l184 295h277zM770 -25q-317 0 -482 158t-165 420v813h358v-801q0 -125 75 -201.5t214 -76.5q137 0 212 76.5t75 201.5v801h356v-811q0 -266 -163 -423t-480 -157z" />
<glyph unicode="&#xdc;" horiz-adv-x="1536" d="M1155 1618q0 -68 -47 -115t-115 -47q-66 0 -112.5 47t-46.5 115q0 66 47 113t112 47q68 0 115 -47t47 -113zM717 1618q0 -68 -47 -115t-115 -47q-66 0 -113 47t-47 115q0 66 47 113t113 47q68 0 115 -47t47 -113zM770 -25q-317 0 -482 158t-165 420v813h358v-801 q0 -125 75 -201.5t214 -76.5q137 0 212 76.5t75 201.5v801h356v-811q0 -266 -163 -423t-480 -157z" />
<glyph unicode="&#xdd;" horiz-adv-x="1341" d="M1032 1786l-325 -295h-213l260 295h278zM848 0h-352v551l-519 815h398l297 -504l293 504h399l-516 -815v-551z" />
<glyph unicode="&#xde;" horiz-adv-x="1316" d="M475 0h-352v1366h352v-209h332q221 0 348 -131t127 -325.5t-126 -322.5t-349 -128h-332v-250zM754 559q74 0 122 38t48 105.5t-48.5 107.5t-121.5 40h-279v-291h279z" />
<glyph unicode="&#xdf;" horiz-adv-x="1361" d="M1335 305q0 -147 -118.5 -238.5t-309.5 -91.5q-137 0 -230 41t-183 121l124 217q43 -53 125 -91t164 -38q125 0 125 70q0 31 -52 49t-127 33.5t-148.5 43.5t-126 96.5t-52.5 174.5q0 70 36 128.5t79 89t79 61t36 53.5q0 41 -40 62.5t-98 21.5q-84 0 -135 -42t-51 -118 v-948h-315v948q0 184 137 311t371 127q184 0 318 -87t134 -228q0 -63 -25.5 -115.5t-62.5 -85t-73.5 -59.5t-62.5 -53.5t-26 -52.5q0 -29 52.5 -43.5t127 -29t149.5 -42t127 -100t52 -185.5z" />
<glyph unicode="&#xe0;" horiz-adv-x="1128" d="M1014 0h-316v98q-47 -55 -130 -89t-177 -34q-129 0 -234.5 86t-105.5 240q0 164 102.5 242t237.5 78q213 0 307 -117v98q0 66 -53 106t-147 40q-152 0 -277 -107l-117 219q180 154 449 154q94 0 173 -19.5t145.5 -62.5t104.5 -123t38 -191v-618zM522 182q127 0 176 72v88 q-49 70 -176 70q-66 0 -111.5 -30t-45.5 -85t45.5 -85t111.5 -30zM739 1139h-213l-325 295h278z" />
<glyph unicode="&#xe1;" horiz-adv-x="1128" d="M1014 0h-316v98q-47 -55 -130 -89t-177 -34q-129 0 -234.5 86t-105.5 240q0 164 102.5 242t237.5 78q213 0 307 -117v98q0 66 -53 106t-147 40q-152 0 -277 -107l-117 219q180 154 449 154q94 0 173 -19.5t145.5 -62.5t104.5 -123t38 -191v-618zM522 182q127 0 176 72v88 q-49 70 -176 70q-66 0 -111.5 -30t-45.5 -85t45.5 -85t111.5 -30zM922 1434l-326 -295h-213l260 295h279z" />
<glyph unicode="&#xe2;" horiz-adv-x="1128" d="M1014 0h-316v98q-47 -55 -130 -89t-177 -34q-129 0 -234.5 86t-105.5 240q0 164 102.5 242t237.5 78q213 0 307 -117v98q0 66 -53 106t-147 40q-152 0 -277 -107l-117 219q180 154 449 154q94 0 173 -19.5t145.5 -62.5t104.5 -123t38 -191v-618zM522 182q127 0 176 72v88 q-49 70 -176 70q-66 0 -111.5 -30t-45.5 -85t45.5 -85t111.5 -30zM891 1139h-189l-141 166l-133 -166h-188l184 295h276z" />
<glyph unicode="&#xe3;" horiz-adv-x="1128" d="M1014 0h-316v98q-47 -55 -130 -89t-177 -34q-129 0 -234.5 86t-105.5 240q0 164 102.5 242t237.5 78q213 0 307 -117v98q0 66 -53 106t-147 40q-152 0 -277 -107l-117 219q180 154 449 154q94 0 173 -19.5t145.5 -62.5t104.5 -123t38 -191v-618zM522 182q127 0 176 72v88 q-49 70 -176 70q-66 0 -111.5 -30t-45.5 -85t45.5 -85t111.5 -30zM670 1135q-57 0 -100.5 28.5t-75 56t-56.5 27.5q-61 0 -61 -100h-160q0 274 232 274q57 0 100 -28.5t74.5 -56t56.5 -27.5q61 0 61 100h160q0 -274 -231 -274z" />
<glyph unicode="&#xe4;" horiz-adv-x="1128" d="M1014 0h-316v98q-47 -55 -130 -89t-177 -34q-129 0 -234.5 86t-105.5 240q0 164 102.5 242t237.5 78q213 0 307 -117v98q0 66 -53 106t-147 40q-152 0 -277 -107l-117 219q180 154 449 154q94 0 173 -19.5t145.5 -62.5t104.5 -123t38 -191v-618zM522 182q127 0 176 72v88 q-49 70 -176 70q-66 0 -111.5 -30t-45.5 -85t45.5 -85t111.5 -30zM936 1260q0 -68 -47 -115t-115 -47q-66 0 -113 47t-47 115q0 66 47.5 112.5t112.5 46.5q68 0 115 -46.5t47 -112.5zM498 1260q0 -68 -47.5 -115t-114.5 -47q-66 0 -113 47t-47 115q0 66 47 112.5t113 46.5 q68 0 115 -46.5t47 -112.5z" />
<glyph unicode="&#xe5;" horiz-adv-x="1128" d="M1014 0h-316v98q-47 -55 -130 -89t-177 -34q-129 0 -234.5 86t-105.5 240q0 164 102.5 242t237.5 78q213 0 307 -117v98q0 66 -53 106t-147 40q-152 0 -277 -107l-117 219q180 154 449 154q94 0 173 -19.5t145.5 -62.5t104.5 -123t38 -191v-618zM522 182q127 0 176 72v88 q-49 70 -176 70q-66 0 -111.5 -30t-45.5 -85t45.5 -85t111.5 -30zM563 1100q-92 0 -157.5 66.5t-65.5 156.5t65.5 156.5t157.5 66.5q90 0 154.5 -66.5t64.5 -156.5t-64.5 -156.5t-154.5 -66.5zM563 1239q33 0 57.5 24.5t24.5 59.5t-24.5 59.5t-57.5 24.5q-35 0 -59.5 -24.5 t-24.5 -59.5t24.5 -59.5t59.5 -24.5z" />
<glyph unicode="&#xe6;" horiz-adv-x="1761" d="M1720 391h-704q18 -70 82.5 -111.5t167.5 -41.5q55 0 127.5 23.5t111.5 57.5l140 -213q-72 -63 -184.5 -97t-231.5 -34q-121 0 -229.5 44t-178.5 122q-68 -74 -174 -120t-227 -46q-150 0 -259.5 83t-109.5 239t98.5 240t241.5 84q207 0 307 -113v96q0 63 -53 103.5 t-147 40.5q-154 0 -277 -107l-117 219q180 154 449 154q238 0 340 -133q123 133 340 133q211 0 349 -151.5t138 -399.5v-72zM1014 606h405q-8 63 -56 108.5t-146 45.5q-94 0 -144.5 -45.5t-58.5 -108.5zM713 270q-14 33 -15 70q-49 72 -176 72q-66 0 -111.5 -31t-45.5 -84 q0 -55 46 -85t111 -30q138 0 191 88z" />
<glyph unicode="&#xe7;" horiz-adv-x="1024" d="M598 -401q-150 0 -233 67l57 119q84 -61 168 -61q39 0 67.5 15t28.5 42q0 45 -51 45q-37 0 -60 -27l-106 62l43 119q-203 23 -332 165t-129 351q0 229 152.5 373.5t386.5 144.5q147 0 250.5 -53.5t154.5 -129.5l-204 -190q-63 94 -187 94q-100 0 -165.5 -64.5t-65.5 -175 t65.5 -176t165.5 -65.5q119 0 187 96l204 -192q-106 -156 -340 -178l-30 -76q35 20 69 20q57 0 98.5 -42t41.5 -105q0 -82 -68 -130t-168 -48z" />
<glyph unicode="&#xe8;" horiz-adv-x="1122" d="M590 -25q-233 0 -386 142.5t-153 378.5q0 219 147.5 368.5t376.5 149.5q223 0 364.5 -150.5t141.5 -400.5v-72h-704q18 -72 81.5 -117t166.5 -45q57 0 128.5 23.5t112.5 60.5l138 -207q-72 -63 -183.5 -97t-230.5 -34zM780 606q-8 61 -57 107.5t-148 46.5q-94 0 -143 -45 t-59 -109h407zM760 1139h-213l-326 295h279z" />
<glyph unicode="&#xe9;" horiz-adv-x="1122" d="M590 -25q-233 0 -386 142.5t-153 378.5q0 219 147.5 368.5t376.5 149.5q223 0 364.5 -150.5t141.5 -400.5v-72h-704q18 -72 81.5 -117t166.5 -45q57 0 128.5 23.5t112.5 60.5l138 -207q-72 -63 -183.5 -97t-230.5 -34zM780 606q-8 61 -57 107.5t-148 46.5q-94 0 -143 -45 t-59 -109h407zM936 1434l-326 -295h-213l260 295h279z" />
<glyph unicode="&#xea;" horiz-adv-x="1122" d="M590 -25q-233 0 -386 142.5t-153 378.5q0 219 147.5 368.5t376.5 149.5q223 0 364.5 -150.5t141.5 -400.5v-72h-704q18 -72 81.5 -117t166.5 -45q57 0 128.5 23.5t112.5 60.5l138 -207q-72 -63 -183.5 -97t-230.5 -34zM780 606q-8 61 -57 107.5t-148 46.5q-94 0 -143 -45 t-59 -109h407zM903 1139h-188l-142 166l-133 -166h-188l184 295h277z" />
<glyph unicode="&#xeb;" horiz-adv-x="1122" d="M590 -25q-233 0 -386 142.5t-153 378.5q0 219 147.5 368.5t376.5 149.5q223 0 364.5 -150.5t141.5 -400.5v-72h-704q18 -72 81.5 -117t166.5 -45q57 0 128.5 23.5t112.5 60.5l138 -207q-72 -63 -183.5 -97t-230.5 -34zM780 606q-8 61 -57 107.5t-148 46.5q-94 0 -143 -45 t-59 -109h407zM958 1260q0 -68 -47 -115t-114 -47q-66 0 -113 47t-47 115q0 66 47 112.5t113 46.5q68 0 114.5 -46.5t46.5 -112.5zM520 1260q0 -68 -47 -115t-115 -47q-66 0 -112.5 47t-46.5 115q0 66 47 112.5t112 46.5q68 0 115 -46.5t47 -112.5z" />
<glyph unicode="&#xec;" horiz-adv-x="544" d="M457 1139h-213l-326 295h279zM430 0h-315v989h315v-989z" />
<glyph unicode="&#xed;" horiz-adv-x="544" d="M629 1434l-326 -295h-213l260 295h279zM430 0h-315v989h315v-989z" />
<glyph unicode="&#xee;" horiz-adv-x="544" d="M600 1139h-188l-142 166l-133 -166h-188l184 295h277zM430 0h-315v989h315v-989z" />
<glyph unicode="&#xef;" horiz-adv-x="544" d="M653 1260q0 -68 -47 -115t-114 -47q-66 0 -113 47t-47 115q0 66 47 112.5t113 46.5q68 0 114.5 -46.5t46.5 -112.5zM215 1260q0 -68 -47 -115t-115 -47q-66 0 -112.5 47t-46.5 115q0 66 47 112.5t112 46.5q68 0 115 -46.5t47 -112.5zM430 0h-315v989h315v-989z" />
<glyph unicode="&#xf0;" horiz-adv-x="1179" d="M190 930l-57 141l211 92l-113 68l170 250q160 -98 265 -176l204 90l60 -135l-137 -62q336 -305 335 -676q0 -248 -144 -397.5t-396 -149.5q-242 0 -389.5 132.5t-147.5 343.5q0 207 124 339t308 132q213 0 328 -193q-57 150 -317 336zM588 254q102 0 159.5 55.5 t57.5 141.5q0 84 -58.5 139t-158.5 55q-98 0 -155.5 -55t-57.5 -139q0 -86 57.5 -141.5t155.5 -55.5z" />
<glyph unicode="&#xf1;" horiz-adv-x="1214" d="M1116 0h-315v571q0 164 -162 164q-115 0 -193 -96v-639h-315v989h315v-121q125 145 345 146q162 0 243.5 -85t81.5 -229v-700zM721 1135q-57 0 -100 28.5t-75 56t-57 27.5q-61 0 -61 -100h-160q0 274 232 274q57 0 100 -28.5t75 -56t56 -27.5q61 0 62 100h159 q0 -274 -231 -274z" />
<glyph unicode="&#xf2;" horiz-adv-x="1179" d="M588 -25q-244 0 -390.5 152t-146.5 369t146.5 367.5t390.5 150.5q246 0 393 -150.5t147 -367.5t-147 -369t-393 -152zM588 254q100 0 158.5 68.5t58.5 173.5q0 102 -58.5 170.5t-158.5 68.5q-98 0 -155.5 -68.5t-57.5 -170.5q0 -104 57.5 -173t155.5 -69zM774 1139h-213 l-325 295h278z" />
<glyph unicode="&#xf3;" horiz-adv-x="1179" d="M588 -25q-244 0 -390.5 152t-146.5 369t146.5 367.5t390.5 150.5q246 0 393 -150.5t147 -367.5t-147 -369t-393 -152zM588 254q100 0 158.5 68.5t58.5 173.5q0 102 -58.5 170.5t-158.5 68.5q-98 0 -155.5 -68.5t-57.5 -170.5q0 -104 57.5 -173t155.5 -69zM944 1434 l-326 -295h-212l260 295h278z" />
<glyph unicode="&#xf4;" horiz-adv-x="1179" d="M588 -25q-244 0 -390.5 152t-146.5 369t146.5 367.5t390.5 150.5q246 0 393 -150.5t147 -367.5t-147 -369t-393 -152zM588 254q100 0 158.5 68.5t58.5 173.5q0 102 -58.5 170.5t-158.5 68.5q-98 0 -155.5 -68.5t-57.5 -170.5q0 -104 57.5 -173t155.5 -69zM918 1139h-189 l-141 166l-133 -166h-189l185 295h276z" />
<glyph unicode="&#xf5;" horiz-adv-x="1179" d="M588 -25q-244 0 -390.5 152t-146.5 369t146.5 367.5t390.5 150.5q246 0 393 -150.5t147 -367.5t-147 -369t-393 -152zM588 254q100 0 158.5 68.5t58.5 173.5q0 102 -58.5 170.5t-158.5 68.5q-98 0 -155.5 -68.5t-57.5 -170.5q0 -104 57.5 -173t155.5 -69zM700 1135 q-57 0 -100 28.5t-74.5 56t-56.5 27.5q-61 0 -61 -100h-160q0 274 231 274q57 0 100.5 -28.5t75 -56t56.5 -27.5q61 0 61 100h160q-1 -274 -232 -274z" />
<glyph unicode="&#xf6;" horiz-adv-x="1179" d="M588 -25q-244 0 -390.5 152t-146.5 369t146.5 367.5t390.5 150.5q246 0 393 -150.5t147 -367.5t-147 -369t-393 -152zM588 254q100 0 158.5 68.5t58.5 173.5q0 102 -58.5 170.5t-158.5 68.5q-98 0 -155.5 -68.5t-57.5 -170.5q0 -104 57.5 -173t155.5 -69zM969 1260 q0 -68 -47.5 -115t-114.5 -47q-66 0 -113 47t-47 115q0 66 47 112.5t113 46.5q68 0 115 -46.5t47 -112.5zM530 1260q0 -68 -47 -115t-114 -47q-66 0 -113 47t-47 115q0 66 47 112.5t113 46.5q68 0 114.5 -46.5t46.5 -112.5z" />
<glyph unicode="&#xf7;" horiz-adv-x="1046" d="M664 1044.5q0 -57.5 -42 -99.5t-99.5 -42t-98.5 42t-41 99.5t40 98.5t99.5 41t100.5 -41t41 -98.5zM987 596h-928v188h928v-188zM664 336q0 -57 -41 -99t-101 -42q-57 0 -98 40.5t-41 100.5q0 57 41 98t98.5 41t99.5 -41t42 -98z" />
<glyph unicode="&#xf8;" horiz-adv-x="1179" d="M244 0h-185l123 141q-131 143 -131 355q0 217 146.5 367.5t390.5 150.5q166 0 295 -76l45 51h188l-123 -139q135 -145 135 -354q0 -217 -147 -369t-393 -152q-170 0 -297 78zM588 254q100 0 158.5 68.5t58.5 173.5q0 59 -23 114l-295 -334q46 -22 101 -22zM375 496 q0 -66 20 -113l291 330q-45 23 -98 22q-98 0 -155.5 -68.5t-57.5 -170.5z" />
<glyph unicode="&#xf9;" horiz-adv-x="1212" d="M1098 0h-316v119q-127 -143 -342 -144q-162 0 -243.5 84t-81.5 226v704h315v-573q0 -162 164 -162q113 0 188 96v639h316v-989zM795 1139h-213l-326 295h279z" />
<glyph unicode="&#xfa;" horiz-adv-x="1212" d="M1098 0h-316v119q-127 -143 -342 -144q-162 0 -243.5 84t-81.5 226v704h315v-573q0 -162 164 -162q113 0 188 96v639h316v-989zM965 1434l-326 -295h-213l260 295h279z" />
<glyph unicode="&#xfb;" horiz-adv-x="1212" d="M1098 0h-316v119q-127 -143 -342 -144q-162 0 -243.5 84t-81.5 226v704h315v-573q0 -162 164 -162q113 0 188 96v639h316v-989zM936 1139h-188l-142 166l-133 -166h-188l184 295h276z" />
<glyph unicode="&#xfc;" horiz-adv-x="1212" d="M1098 0h-316v119q-127 -143 -342 -144q-162 0 -243.5 84t-81.5 226v704h315v-573q0 -162 164 -162q113 0 188 96v639h316v-989zM991 1260q0 -68 -47 -115t-115 -47q-66 0 -112.5 47t-46.5 115q0 66 47 112.5t112 46.5q68 0 115 -46.5t47 -112.5zM553 1260q0 -68 -47 -115 t-115 -47q-66 0 -113 47t-47 115q0 66 47.5 112.5t112.5 46.5q68 0 115 -46.5t47 -112.5z" />
<glyph unicode="&#xfd;" horiz-adv-x="1073" d="M94 -385l45 281q33 -18 78 -19q111 0 135 55l23 54l-395 1003h331l226 -627l223 627h334l-447 -1130q-57 -143 -159.5 -199.5t-258.5 -60.5q-82 0 -135 16zM891 1434l-326 -295h-213l260 295h279z" />
<glyph unicode="&#xfe;" d="M723 -25q-174 0 -293 142v-494h-315v1743h315v-492q115 139 293 140q193 0 313.5 -137.5t120.5 -380.5q0 -246 -120.5 -383.5t-313.5 -137.5zM618 254q94 0 156 65.5t62 176.5q0 109 -61.5 174t-156.5 65q-51 0 -105 -25.5t-83 -64.5v-301q29 -39 83 -64.5t105 -25.5z " />
<glyph unicode="&#xff;" horiz-adv-x="1073" d="M94 -385l45 281q33 -18 78 -19q111 0 135 55l23 54l-395 1003h331l226 -627l223 627h334l-447 -1130q-57 -145 -158.5 -200.5t-259.5 -59.5q-82 0 -135 16zM915 1260q0 -68 -47 -115t-114 -47q-66 0 -113 47t-47 115q0 66 47 112.5t113 46.5q68 0 114.5 -46.5 t46.5 -112.5zM477 1260q0 -68 -47 -115t-115 -47q-66 0 -112.5 47t-46.5 115q0 66 47 112.5t112 46.5q68 0 115 -46.5t47 -112.5z" />
<glyph unicode="&#x152;" horiz-adv-x="2197" d="M2124 0h-1002v117q-66 -68 -169 -105t-208 -37q-301 0 -496.5 197t-195.5 510q0 311 195.5 507.5t496.5 196.5q104 0 208 -35.5t169 -101.5v117h1002v-307h-649v-213h634v-307h-634v-232h649v-307zM1122 479v408q-45 90 -130 139t-195 49q-174 0 -279.5 -111.5 t-105.5 -281.5q0 -172 105.5 -283.5t279.5 -111.5q109 0 194.5 51t130.5 141z" />
<glyph unicode="&#x153;" horiz-adv-x="1875" d="M1835 391h-705q20 -72 84 -117t166 -45q55 0 128 23.5t112 60.5l139 -207q-72 -63 -184.5 -97t-231.5 -34q-133 0 -219 50.5t-161 136.5q-156 -186 -375 -187q-244 0 -390.5 152t-146.5 369t146.5 367.5t390.5 150.5q211 0 377 -189q150 188 366 189q223 0 363.5 -150.5 t140.5 -400.5v-72zM1128 606h406q-8 61 -57.5 107.5t-147.5 46.5q-94 0 -143.5 -45.5t-57.5 -108.5zM805 495.5q0 110.5 -59.5 175t-157.5 64.5q-94 0 -153.5 -65.5t-59.5 -173.5q0 -111 59.5 -177.5t153.5 -66.5q98 0 157.5 66.5t59.5 177z" />
<glyph unicode="&#x178;" horiz-adv-x="1341" d="M1055 1618q0 -68 -47 -115t-115 -47q-66 0 -113 47t-47 115q0 66 47 113t113 47q68 0 115 -47t47 -113zM616 1618q0 -68 -47 -115t-114 -47q-66 0 -113 47t-47 115q0 66 47 113t113 47q68 0 114.5 -47t46.5 -113zM848 0h-352v551l-519 815h398l297 -504l293 504h399 l-516 -815v-551z" />
<glyph unicode="&#x2c6;" horiz-adv-x="651" d="M651 1139h-188l-141 166l-134 -166h-188l184 295h277z" />
<glyph unicode="&#x2dc;" horiz-adv-x="684" d="M453 1135q-57 0 -100.5 28.5t-75 56t-56.5 27.5q-61 0 -61 -100h-160q0 274 231 274q57 0 100.5 -28.5t75 -56t56.5 -27.5q61 0 61 100h160q0 -274 -231 -274z" />
<glyph unicode="&#x2000;" horiz-adv-x="931" />
<glyph unicode="&#x2001;" horiz-adv-x="1865" />
<glyph unicode="&#x2002;" horiz-adv-x="931" />
<glyph unicode="&#x2003;" horiz-adv-x="1865" />
<glyph unicode="&#x2004;" horiz-adv-x="620" />
<glyph unicode="&#x2005;" horiz-adv-x="464" />
<glyph unicode="&#x2006;" horiz-adv-x="309" />
<glyph unicode="&#x2007;" horiz-adv-x="309" />
<glyph unicode="&#x2008;" horiz-adv-x="231" />
<glyph unicode="&#x2009;" horiz-adv-x="372" />
<glyph unicode="&#x200a;" horiz-adv-x="102" />
<glyph unicode="&#x2010;" horiz-adv-x="614" d="M553 365h-492v264h492v-264z" />
<glyph unicode="&#x2011;" horiz-adv-x="614" d="M553 365h-492v264h492v-264z" />
<glyph unicode="&#x2012;" horiz-adv-x="614" d="M553 365h-492v264h492v-264z" />
<glyph unicode="&#x2013;" horiz-adv-x="1214" d="M1153 365h-1092v264h1092v-264z" />
<glyph unicode="&#x2014;" horiz-adv-x="1705" d="M1645 365h-1584v264h1584v-264z" />
<glyph unicode="&#x2018;" horiz-adv-x="548" d="M70 973q0 250 233 416l131 -107q-51 -25 -103 -83t-69 -112q25 6 47 7q68 0 113 -47.5t45 -120.5q0 -78 -55.5 -134.5t-130.5 -56.5q-86 0 -148.5 64.5t-62.5 173.5z" />
<glyph unicode="&#x2019;" horiz-adv-x="548" d="M479 1149q0 -250 -233 -414l-131 105q51 27 104 84t70 112q-16 -8 -47 -8q-68 0 -114 47t-46 123q0 78 55.5 133t132.5 55q88 0 148.5 -64t60.5 -173z" />
<glyph unicode="&#x201a;" horiz-adv-x="548" d="M479 125q0 -252 -233 -416l-131 107q51 27 104 84t70 110q-25 -6 -47 -6q-68 0 -114 47t-46 121q0 78 55.5 133t132.5 55q86 0 147.5 -63t61.5 -172z" />
<glyph unicode="&#x201c;" horiz-adv-x="1011" d="M68 973q0 250 233 416l131 -107q-51 -27 -104.5 -84t-67.5 -111q25 6 47 7q66 0 112 -47.5t46 -120.5q0 -78 -55.5 -134.5t-130.5 -56.5q-86 0 -148.5 64.5t-62.5 173.5zM528 973q0 250 234 416l131 -107q-51 -25 -103.5 -83t-68.5 -112q25 6 47 7q68 0 113 -47.5 t45 -120.5q0 -78 -55.5 -134.5t-131.5 -56.5q-86 0 -148.5 64.5t-62.5 173.5z" />
<glyph unicode="&#x201d;" horiz-adv-x="1011" d="M942 1149q0 -250 -233 -414l-131 105q51 27 103 84t69 112q-16 -8 -48 -8q-68 0 -112.5 47t-44.5 123q0 78 55 133t131 55q88 0 149.5 -64t61.5 -173zM479 1149q0 -250 -233 -414l-131 105q51 27 104 84t70 112q-16 -8 -47 -8q-68 0 -114 47t-46 123q0 78 55.5 133 t132.5 55q88 0 148.5 -64t60.5 -173z" />
<glyph unicode="&#x201e;" horiz-adv-x="1011" d="M479 125q0 -252 -233 -416l-131 107q51 27 104 84t70 110q-25 -6 -47 -6q-68 0 -114 47t-46 121q0 78 55.5 133t132.5 55q86 0 147.5 -63t61.5 -172zM942 125q0 -252 -233 -416l-131 107q51 25 103 83t69 111q-25 -6 -48 -6q-68 0 -112.5 47t-44.5 121q0 78 55 133 t131 55q88 0 149.5 -63t61.5 -172z" />
<glyph unicode="&#x2022;" horiz-adv-x="733" d="M623 496q0 -104 -74 -178t-180.5 -74t-180 73.5t-73.5 178.5q0 106 73.5 180t180 74t180.5 -74t74 -180z" />
<glyph unicode="&#x2026;" horiz-adv-x="1652" d="M467 170q0 -78 -56.5 -135.5t-134 -57.5t-135 57.5t-57.5 135.5t57.5 134t135 56t134 -56t56.5 -134zM1018 170q0 -78 -56.5 -135.5t-134 -57.5t-135 57.5t-57.5 135.5t57.5 134t135 56t134 -56t56.5 -134zM1569 170q0 -78 -56.5 -135.5t-134.5 -57.5t-135 57.5 t-57 135.5t57 134t135 56t134.5 -56t56.5 -134z" />
<glyph unicode="&#x202f;" horiz-adv-x="372" />
<glyph unicode="&#x2039;" horiz-adv-x="735" d="M674 129h-285l-328 369l328 362h285l-328 -362z" />
<glyph unicode="&#x203a;" horiz-adv-x="735" d="M674 498l-328 -369h-285l328 369l-328 362h285z" />
<glyph unicode="&#x205f;" horiz-adv-x="464" />
<glyph unicode="&#x20ac;" horiz-adv-x="1464" d="M842 -25q-252 0 -441.5 128t-261.5 346h-104v188h67v45q0 35 2 51h-69v189h104q72 215 262.5 341t440.5 126q227 0 372.5 -104.5t223.5 -260.5l-303 -145q-35 84 -116 141t-177 57q-203 0 -310 -155h433v-189h-502q-2 -16 -2 -51q0 -31 2 -45h502v-188h-437 q109 -162 314 -162q96 0 177 57t116 141l303 -143q-78 -156 -224.5 -261.5t-371.5 -105.5z" />
<glyph unicode="&#x2122;" horiz-adv-x="929" d="M858 915h-57v373l-154 -373h-16l-154 373v-373h-57v451h88l131 -328l131 328h88v-451zM346 1313h-127v-398h-57v398h-127v53h311v-53z" />
<glyph unicode="&#xe000;" horiz-adv-x="990" d="M0 990h990v-990h-990v990z" />
<glyph unicode="&#xfb01;" horiz-adv-x="1259" d="M498 0h-316v717h-164v272h164v23q0 178 100.5 276t254.5 98q135 0 211 -38l-62 -236q-27 20 -84 21q-45 0 -74.5 -31t-29.5 -90v-23h200v-272h-200v-717zM987 1077q-76 0 -128 53.5t-52 129t52 128t128 52.5t129 -52.5t53 -128t-53 -129t-129 -53.5zM1145 0h-316v989h316 v-989z" />
<glyph unicode="&#xfb02;" horiz-adv-x="1259" d="M498 0h-316v717h-164v272h164v23q0 178 100.5 276t254.5 98q135 0 211 -38l-62 -236q-27 20 -84 21q-45 0 -74.5 -31t-29.5 -90v-23h200v-272h-200v-717zM1145 0h-316v1366h316v-1366z" />
<glyph unicode="&#xfb03;" horiz-adv-x="1976" d="M498 0h-316v717h-164v272h164v23q0 174 98.5 274t256.5 100q184 0 282 -92l-114 -196q-39 35 -103 35q-45 0 -74.5 -31t-29.5 -90v-23h200v-272h-200v-717zM1212 0h-315v717h-164v272h164v23q0 178 100.5 276t253.5 98q135 0 211 -38l-61 -236q-27 20 -84 21 q-45 0 -75 -31t-30 -90v-23h201v-272h-201v-717zM1702 1077q-76 0 -128 53.5t-52 129t52 128t128 52.5t129 -52.5t53 -128t-53 -129t-129 -53.5zM1860 0h-316v989h316v-989z" />
<glyph unicode="&#xfb04;" horiz-adv-x="1976" d="M498 0h-316v717h-164v272h164v23q0 174 98.5 274t256.5 100q184 0 282 -92l-114 -196q-39 35 -103 35q-45 0 -74.5 -31t-29.5 -90v-23h200v-272h-200v-717zM1212 0h-315v717h-164v272h164v23q0 178 100.5 276t253.5 98q135 0 211 -38l-61 -236q-27 20 -84 21 q-45 0 -75 -31t-30 -90v-23h201v-272h-201v-717zM1860 0h-316v1366h316v-1366z" />
</font>
</defs>
</svg>
