<?xml version="1.0" standalone="no"?>
<!DOCTYPE svg PUBLIC "-//W3C//DTD SVG 1.1//EN" "http://www.w3.org/Graphics/SVG/1.1/DTD/svg11.dtd" >
<svg>
<metadata>
Created by FontForge 20110222 at Thu May 30 13:47:33 2013
 By Orthosie Webhosting
Copyright (c) 2012 Linotype GmbH, www.linotype.com. All rights reserved. This font software may not be reproduced, modified, disclosed or transferred without the express written approval of Linotype GmbH. Avenir is a trademark of Linotype GmbH registered in the U.S. Patent and Trademark Office and may be registered in certain other jurisdictions. This typeface is original artwork of Adrian Frutiger and Akira Kobayashi. The design may be protected in certain jurisdictions.
</metadata>
<defs>
<font id="AvenirNextW01ThinRegular" horiz-adv-x="566" >
  <font-face 
    font-family="AvenirNextW01ThinRegular"
    font-weight="275"
    font-stretch="normal"
    units-per-em="1000"
    panose-1="2 11 3 3 2 2 2 2 2 4"
    ascent="761"
    descent="-239"
    x-height="462"
    cap-height="708"
    bbox="-20 -250 968 945"
    underline-thickness="50"
    underline-position="-50"
    unicode-range="U+000D-2122"
  />
<missing-glyph horiz-adv-x="0" 
 />
    <glyph glyph-name=".notdef" horiz-adv-x="0" 
 />
    <glyph glyph-name=".null" horiz-adv-x="500" 
 />
    <glyph glyph-name="nonmarkingreturn" unicode="&#xd;" horiz-adv-x="0" 
 />
    <glyph glyph-name="space" unicode=" " horiz-adv-x="250" 
 />
    <glyph glyph-name="exclam" unicode="!" horiz-adv-x="292" 
d="M165 194h-38v514h38v-514zM179 28q0 -14 -9.5 -24t-23.5 -10t-23.5 10t-9.5 24q0 15 9.5 25t23.5 10t23.5 -10t9.5 -25z" />
    <glyph glyph-name="quotedbl" unicode="&#x22;" horiz-adv-x="404" 
d="M113 708h34v-230h-34v230zM257 708h34v-230h-34v230z" />
    <glyph glyph-name="numbersign" unicode="#" horiz-adv-x="552" 
d="M139 232h-108v30h112l25 186h-110v30h115l29 230h32l-30 -230h160l30 230h32l-30 -230h105v-30h-109l-25 -186h107v-30h-111l-30 -232h-32l30 232h-160l-30 -232h-32zM176 262h159l25 186h-160z" />
    <glyph glyph-name="dollar" unicode="$" 
d="M257 689q-30 -3 -57.5 -14t-48.5 -30t-33.5 -46t-12.5 -61q0 -35 12.5 -60t33.5 -43.5t48.5 -31t57.5 -21.5v307zM288 18q32 1 62 11.5t53 30t37 48.5t14 68q0 35 -14 60.5t-37 44t-53 32t-62 23.5v-318zM257 344q-39 12 -73.5 27.5t-60 37.5t-40 53t-14.5 75
q0 40 14.5 72.5t40 56t59.5 37.5t74 17v72h31v-71q54 -1 104.5 -20t84.5 -59l-29 -24q-26 35 -68.5 53.5t-91.5 18.5v-318q41 -14 78 -29.5t64.5 -38t44 -54t16.5 -76.5q0 -43 -15.5 -77t-43 -58t-64.5 -37.5t-80 -14.5v-71h-31v71q-64 2 -115.5 27t-87.5 68l29 22
q34 -42 82 -63t92 -23v326z" />
    <glyph glyph-name="percent" unicode="%" horiz-adv-x="824" 
d="M373 553q0 -35 -12.5 -65t-34.5 -52t-51.5 -34.5t-63.5 -12.5t-63.5 12.5t-51.5 34.5t-35 52t-13 65q0 34 13 64t35 52t51.5 35t63.5 13t63.5 -13t51.5 -35t34.5 -52t12.5 -64zM340 553q0 28 -10.5 52t-28 42t-41 28t-49.5 10q-27 0 -50.5 -10t-41 -28t-27.5 -42t-10 -52
t10 -52t27.5 -42t41 -28t50.5 -10q26 0 49.5 10t41 28t28 42t10.5 52zM776 154q0 -35 -13 -64.5t-35 -51.5t-51.5 -34.5t-63.5 -12.5t-63.5 12.5t-51.5 34.5t-34.5 51.5t-12.5 64.5q0 34 12.5 64t34.5 52.5t51.5 35t63.5 12.5t63.5 -12.5t51.5 -35t35 -52.5t13 -64zM742 154
q0 28 -10.5 52t-28 42t-41 28t-49.5 10q-27 0 -50.5 -10t-41 -28t-27.5 -42t-10 -52t10 -52t27.5 -42t41 -28t50.5 -10q26 0 49.5 10t41 28t28 42t10.5 52zM202 -28l-27 16l443 749l27 -16z" />
    <glyph glyph-name="ampersand" unicode="&#x26;" horiz-adv-x="704" 
d="M517 150l142 -150h-51l-111 118q-45 -67 -99 -100.5t-125 -33.5q-43 0 -80.5 13.5t-65.5 38.5t-44 61.5t-16 83.5q0 39 12.5 70t35 56.5t54 46t68.5 39.5q-47 52 -69 92t-22 84q0 36 12.5 65t34 49.5t51 31.5t63.5 11q33 0 61 -11t49 -30.5t33 -46t12 -58.5
q0 -35 -13.5 -62.5t-36.5 -50.5t-54 -42.5t-66 -38.5l199 -212l110 199h42zM425 577q0 54 -34.5 86t-84.5 32q-26 0 -48.5 -9t-39.5 -25.5t-26.5 -39.5t-9.5 -51q0 -45 26 -84.5t62 -77.5q32 16 60.5 33.5t49.5 37.5t33 44t12 54zM259 369q-32 -16 -60 -34.5t-49 -41.5
t-33 -51t-12 -62q0 -38 13.5 -68t37 -51.5t55 -33t66.5 -11.5q63 0 111.5 34t83.5 94z" />
    <glyph glyph-name="quotesingle" unicode="'" horiz-adv-x="260" 
d="M113 708h34v-230h-34v230z" />
    <glyph glyph-name="parenleft" unicode="(" horiz-adv-x="300" 
d="M97 288q0 -56 9 -114t25.5 -114.5t40.5 -107.5t53 -92l-30 -17q-31 44 -55.5 96t-42 109t-27 118t-9.5 122t9.5 122t27 118t42 109t55.5 96l30 -17q-29 -41 -53 -92t-40.5 -107.5t-25.5 -115t-9 -113.5z" />
    <glyph glyph-name="parenright" unicode=")" horiz-adv-x="300" 
d="M202 288q0 55 -9 113.5t-26 115t-40.5 107.5t-53.5 92l30 17q31 -44 56 -96t42.5 -109t27 -118t9.5 -122t-9.5 -122t-27 -118t-42.5 -109t-56 -96l-30 17q30 41 53.5 92t40.5 107.5t26 114.5t9 114z" />
    <glyph glyph-name="asterisk" unicode="*" horiz-adv-x="444" 
d="M237 546l156 49l11 -29l-158 -48l99 -136l-25 -18l-98 138l-98 -138l-25 18l99 136l-158 48l11 29l156 -49v162h30v-162z" />
    <glyph glyph-name="plus" unicode="+" horiz-adv-x="666" 
d="M351 320h222v-32h-222v-228h-33v228h-225v32h225v228h33v-228z" />
    <glyph glyph-name="comma" unicode="," horiz-adv-x="246" 
d="M92 -139h-29l60 231h39z" />
    <glyph glyph-name="hyphen" unicode="-" horiz-adv-x="306" 
d="M250 235h-194v31h194v-31z" />
    <glyph glyph-name="period" unicode="." horiz-adv-x="246" 
d="M156 29q0 -15 -9.5 -25t-23.5 -10t-23 10t-9 25q0 14 9 24t23 10t23.5 -10t9.5 -24z" />
    <glyph glyph-name="slash" unicode="/" horiz-adv-x="370" 
d="M48 -16l-31 11l306 733l31 -11z" />
    <glyph glyph-name="zero" unicode="0" 
d="M283 722q67 0 110.5 -33.5t69 -87t35 -119t9.5 -128.5q0 -64 -9.5 -129.5t-35 -118.5t-69 -86.5t-110.5 -33.5q-68 0 -111.5 33.5t-68.5 86.5t-34.5 118.5t-9.5 129.5q0 63 9.5 128.5t34.5 119t68.5 87t111.5 33.5zM283 689q-41 0 -70.5 -16.5t-50.5 -44t-33.5 -63
t-19.5 -72.5t-9.5 -73.5t-2.5 -65.5t2.5 -65.5t9.5 -73.5t19.5 -72.5t33.5 -63t50.5 -44t70.5 -16.5t70.5 16.5t50 44t33.5 63t20 72.5t9.5 73.5t2.5 65.5t-2.5 65.5t-9.5 73.5t-20 72.5t-33.5 63t-50 44t-70.5 16.5z" />
    <glyph glyph-name="one" unicode="1" 
d="M326 0h-37v663l-132 -113l-23 27l157 131h35v-708z" />
    <glyph glyph-name="two" unicode="2" 
d="M474 0h-415v41l261 291q49 54 79.5 103.5t30.5 102.5q0 35 -12 63t-32.5 48t-48.5 30.5t-61 10.5q-57 0 -99.5 -32.5t-58.5 -90.5l-37 9q18 68 70.5 107t124.5 39q41 0 76.5 -13t61 -36.5t40 -56.5t14.5 -73q0 -33 -9 -62.5t-25.5 -58t-40.5 -58t-55 -63.5l-239 -267h375
v-34z" />
    <glyph glyph-name="three" unicode="3" 
d="M217 388h25q32 0 63.5 8.5t56 27.5t39.5 48t15 70q0 33 -12 60.5t-32.5 47t-48 30t-59.5 10.5q-44 0 -82 -20t-61 -56l-28 19q29 43 72 66t101 23q39 0 73 -12t59 -35t39.5 -56t14.5 -75q0 -61 -34.5 -108.5t-102.5 -61.5v-2q79 -14 120 -65t41 -118q0 -42 -13.5 -79
t-40.5 -64.5t-66.5 -43.5t-90.5 -16q-71 0 -123.5 32t-79.5 89l32 16q21 -48 67.5 -75t103.5 -29q40 0 72.5 12.5t55 35.5t34.5 54t12 69q0 44 -18.5 75.5t-47 51.5t-63.5 29t-68 9h-25v33z" />
    <glyph glyph-name="four" unicode="4" 
d="M408 213h114v-33h-114v-180h-36v180h-329v40l313 488h52v-495zM372 666h-3l-289 -453h292v453z" />
    <glyph glyph-name="five" unicode="5" 
d="M455 674h-299l-6 -257q26 12 56.5 17t56.5 5q50 0 91 -16.5t70 -46.5t44.5 -71t15.5 -89q0 -54 -18 -97t-48.5 -72.5t-70.5 -45t-84 -15.5q-71 0 -118.5 29t-77.5 76l31 19q25 -42 66 -66.5t98 -24.5q35 0 68.5 13t59.5 37.5t41.5 61t15.5 83.5q0 42 -13.5 77.5t-39 61
t-62 40t-81.5 14.5q-36 0 -71 -9.5t-65 -26.5l5 337h335v-34z" />
    <glyph glyph-name="six" unicode="6" 
d="M152 364l2 -2q23 26 60.5 41.5t78.5 15.5q44 0 81.5 -16t65.5 -45t43.5 -69t15.5 -87t-16 -87t-45 -68.5t-69 -44.5t-87 -16t-86.5 16t-68 44.5t-44.5 68t-16 87.5q0 44 15 89t46 98l189 319h44zM104 202q0 -40 13 -73.5t37 -58t57 -38.5t72 -14t72 14t57 38.5t37 58
t13 73.5t-13 74t-36 59t-55 39t-71 14q-38 0 -71.5 -14t-58.5 -39t-39 -59t-14 -74z" />
    <glyph glyph-name="seven" unicode="7" 
d="M471 669l-292 -669h-41l297 674h-358v34h394v-39z" />
    <glyph glyph-name="eight" unicode="8" 
d="M353 378q73 -22 109 -74t36 -117q0 -46 -16.5 -83t-46 -63.5t-68.5 -40.5t-84 -14t-84 14t-68 40.5t-45.5 63.5t-16.5 83q0 32 9.5 62t27.5 55.5t45 44.5t62 29v2q-59 21 -88 67t-29 97q0 40 14.5 73t39.5 56t59.5 36t73.5 13t73.5 -13t60 -36t40 -56t14.5 -73
q0 -26 -7.5 -51t-22.5 -46.5t-37 -39t-51 -27.5v-2zM132 543q0 -30 11.5 -57.5t31.5 -47.5t47.5 -32t60.5 -12t60.5 12t48 32t32 47.5t11.5 57.5q0 33 -12 60t-32.5 46.5t-48 30t-59.5 10.5t-59.5 -10.5t-48 -30t-32 -46.5t-11.5 -60zM106 190q0 -36 12.5 -67.5t36 -55
t56 -36.5t72.5 -13t72.5 13t56 36.5t36 55t12.5 67.5q0 37 -13.5 69t-37.5 54.5t-56.5 35.5t-69.5 13q-38 0 -70 -13t-56 -35.5t-37.5 -54.5t-13.5 -69z" />
    <glyph glyph-name="nine" unicode="9" 
d="M415 348l-2 2q-23 -26 -60.5 -41.5t-78.5 -15.5q-44 0 -81.5 16t-65.5 44.5t-43.5 67.5t-15.5 86t16 86.5t44.5 68t68.5 44.5t87 16t87 -15.5t68.5 -44t44.5 -68t16 -87.5q0 -45 -15 -88.5t-46 -95.5l-190 -323h-44zM462 507q0 40 -13 73.5t-37 58t-56.5 38t-71.5 13.5
t-72 -13.5t-57 -38t-37 -58t-13 -73.5q0 -39 13 -72.5t36 -58t55 -38.5t71 -14q38 0 71.5 14t58 38.5t38.5 58t14 72.5z" />
    <glyph glyph-name="colon" unicode=":" horiz-adv-x="286" 
d="M176 430q0 -14 -9.5 -24t-23.5 -10t-23 10t-9 24t9 24t23 10t23.5 -10t9.5 -24zM176 29q0 -15 -9.5 -25t-23.5 -10t-23 10t-9 25q0 14 9 24t23 10t23.5 -10t9.5 -24z" />
    <glyph glyph-name="semicolon" unicode=";" horiz-adv-x="286" 
d="M176 430q0 -14 -9.5 -24t-23.5 -10t-23 10t-9 24t9 24t23 10t23.5 -10t9.5 -24zM104 -139h-30l60 231h39z" />
    <glyph glyph-name="less" unicode="&#x3c;" horiz-adv-x="666" 
d="M573 514l-446 -211l446 -211v-33l-480 229v30l480 229v-33z" />
    <glyph glyph-name="equal" unicode="=" horiz-adv-x="666" 
d="M573 402v-32h-480v32h480zM573 237v-31h-480v31h480z" />
    <glyph glyph-name="greater" unicode="&#x3e;" horiz-adv-x="666" 
d="M93 547l480 -229v-30l-480 -229v33l446 211l-446 211v33z" />
    <glyph glyph-name="question" unicode="?" horiz-adv-x="475" 
d="M257 198h-36v55q0 20 3.5 38.5t13.5 37.5t27.5 38.5t44.5 42.5q20 17 35 32t25.5 31.5t15.5 35t5 42.5q0 34 -12 60t-32 43.5t-47 26.5t-58 9q-64 0 -104.5 -37.5t-50.5 -97.5l-36 6q14 78 66.5 120.5t126.5 42.5q38 0 72 -11t59 -33t39.5 -53.5t14.5 -73.5
q0 -32 -7.5 -56t-20 -42.5t-29 -34t-34.5 -30.5q-24 -21 -40 -37t-25 -32t-12.5 -35t-3.5 -44v-44zM275 28q0 -14 -9 -24t-23 -10t-23.5 10t-9.5 24q0 15 9.5 25t23.5 10q13 0 22.5 -10t9.5 -25z" />
    <glyph glyph-name="at" unicode="@" horiz-adv-x="800" 
d="M426 519q-38 0 -68 -21t-50.5 -54t-31 -72t-10.5 -75q0 -20 5 -39t16 -33.5t28.5 -23.5t41.5 -9q40 0 69.5 25.5t49 61.5t29 74.5t9.5 64.5q0 20 -5 38t-15.5 32t-27 22.5t-40.5 8.5zM722 114q-56 -63 -132.5 -98t-169.5 -35q-85 0 -154.5 28.5t-119 79t-76.5 118.5
t-27 147t29 147t79.5 118t118.5 79t146 29q73 0 136.5 -22.5t110 -64t73.5 -99.5t27 -129q0 -56 -13.5 -102.5t-39 -79.5t-61.5 -51.5t-80 -18.5q-37 0 -60.5 18.5t-23.5 53.5q0 8 1 12h-3q-7 -14 -19 -28.5t-28.5 -27t-38 -20.5t-46.5 -8q-31 0 -54 11.5t-38.5 30.5t-23 44
t-7.5 53q0 43 14 88t40 82t62.5 60t82.5 23q44 0 70.5 -22.5t33.5 -59.5h4l17 65h33l-59 -222q-4 -14 -7 -33t-3 -33q0 -55 58 -55q39 0 68 18t48 48t28.5 69.5t9.5 82.5q0 63 -23.5 115.5t-65.5 90t-99 58t-124 20.5q-74 0 -135 -27.5t-105.5 -74.5t-69 -108.5
t-24.5 -130.5q0 -72 24.5 -134.5t69.5 -108t107.5 -71.5t138.5 -26q87 0 157.5 34.5t120.5 89.5z" />
    <glyph glyph-name="A" unicode="A" horiz-adv-x="677" 
d="M57 0h-41l306 708h41l298 -708h-41l-82 198h-398zM154 231h370l-183 443z" />
    <glyph glyph-name="B" unicode="B" horiz-adv-x="619" 
d="M102 708h199q40 0 80 -8t71.5 -27.5t51 -52.5t19.5 -83q0 -35 -11.5 -62t-30.5 -47t-44 -33t-52 -19v-2q29 -3 59.5 -15t55 -34.5t40.5 -55.5t16 -78q0 -53 -20.5 -89.5t-54 -59t-76.5 -32.5t-88 -10h-215v708zM140 388h162q33 0 65.5 8t59 25.5t42.5 45t16 66.5
q0 40 -16 67.5t-42.5 44t-61.5 23.5t-73 7h-152v-287zM140 33h169q44 0 82.5 9t66.5 28t44 48.5t16 71.5q0 44 -17 75.5t-45 51.5t-63.5 29.5t-71.5 9.5h-181v-323z" />
    <glyph glyph-name="C" unicode="C" horiz-adv-x="723" 
d="M687 95q-21 -27 -49 -48t-61 -35.5t-70 -22.5t-76 -8q-80 0 -147 28t-115 77.5t-75 118t-27 149.5t27 149.5t75.5 118t115.5 77.5t146 28q69 0 133 -24.5t106 -72.5l-27 -25q-18 21 -42.5 37.5t-52 27.5t-57.5 17t-60 6q-74 0 -133.5 -26.5t-102.5 -72.5t-66 -108
t-23 -132t23 -131.5t65.5 -107.5t102.5 -73t134 -27q64 0 126 25t102 77z" />
    <glyph glyph-name="D" unicode="D" horiz-adv-x="766" 
d="M102 708h212q78 0 147.5 -21t122.5 -64.5t84 -110.5t31 -158t-31 -157.5t-84 -110t-122.5 -65t-147.5 -21.5h-212v708zM140 34h164q79 0 144.5 21t112.5 61.5t73 100t26 137.5t-26 137.5t-73 100t-112.5 61.5t-144.5 21h-164v-640z" />
    <glyph glyph-name="E" unicode="E" horiz-adv-x="591" 
d="M139 34h398v-34h-435v708h421v-34h-384v-290h360v-33h-360v-317z" />
    <glyph glyph-name="F" unicode="F" horiz-adv-x="561" 
d="M140 0h-38v708h411v-34h-373v-291h347v-33h-347v-350z" />
    <glyph glyph-name="G" unicode="G" horiz-adv-x="790" 
d="M653 615q-39 38 -98 58.5t-119 20.5q-75 0 -136 -27t-104 -73t-66.5 -107.5t-23.5 -131.5q0 -69 23 -131t66 -108.5t105 -74t141 -27.5q69 0 122.5 14t95.5 35v261h-178v32h215v-312q-47 -27 -112 -45t-145 -18q-83 0 -151.5 28.5t-117.5 78.5t-76 118.5t-27 148.5
q0 81 27.5 149t76 117.5t116.5 77.5t149 28q76 0 136 -22.5t106 -63.5z" />
    <glyph glyph-name="H" unicode="H" horiz-adv-x="728" 
d="M102 708h38v-324h448v324h37v-708h-37v350h-448v-350h-38v708z" />
    <glyph glyph-name="I" unicode="I" horiz-adv-x="242" 
d="M140 0h-38v708h38v-708z" />
    <glyph glyph-name="J" unicode="J" horiz-adv-x="484" 
d="M62 115q16 -44 52 -72t86 -28q41 0 69.5 14.5t46 39t25.5 58.5t8 73v508h37v-512q0 -44 -10.5 -83t-32.5 -68t-56.5 -46t-83.5 -17q-67 0 -113 35t-62 86z" />
    <glyph glyph-name="K" unicode="K" horiz-adv-x="584" 
d="M140 385l351 323h54l-359 -324l377 -384h-54l-369 380v-380h-38v708h38v-323z" />
    <glyph glyph-name="L" unicode="L" horiz-adv-x="502" 
d="M140 34h345v-34h-383v708h38v-674z" />
    <glyph glyph-name="M" unicode="M" horiz-adv-x="900" 
d="M102 708h61l287 -648l287 648h61v-708h-38v662h-3l-296 -662h-24l-295 662h-2v-662h-38v708z" />
    <glyph glyph-name="N" unicode="N" horiz-adv-x="773" 
d="M631 52h2v656h38v-708h-50l-479 658h-2v-658h-38v708h50z" />
    <glyph glyph-name="O" unicode="O" horiz-adv-x="865" 
d="M798 354q0 -81 -27.5 -149.5t-76.5 -118t-116 -77.5t-145 -28q-79 0 -146 28t-116 77.5t-76.5 118t-27.5 149.5t27.5 149.5t76.5 118t116 77.5t146 28t145.5 -28t115.5 -77.5t76.5 -118t27.5 -149.5zM759 354q0 70 -23.5 132t-66.5 108t-103 73t-133 27q-74 0 -134 -27
t-103 -73t-66.5 -108t-23.5 -132t23 -131.5t66 -107.5t103.5 -73t134.5 -27t134 27t103 73t66 107.5t23 131.5z" />
    <glyph glyph-name="P" unicode="P" horiz-adv-x="574" 
d="M102 708h195q43 0 83.5 -9.5t72 -30.5t50.5 -55.5t19 -84.5q0 -46 -17 -80.5t-46 -58t-68.5 -35.5t-85.5 -12h-165v-342h-38v708zM140 374h165q36 0 68.5 9t57 27.5t39 47.5t14.5 70t-15.5 69t-41 45.5t-58.5 25.5t-68 8h-161v-302z" />
    <glyph glyph-name="Q" unicode="Q" horiz-adv-x="871" 
d="M106 362q0 -68 23.5 -127.5t66 -104.5t102.5 -71t132 -26q74 0 133.5 27.5t101.5 73t65 105t23 123.5q0 67 -23.5 127.5t-66 106t-102.5 72t-132 26.5t-131.5 -26.5t-102 -71.5t-66 -105.5t-23.5 -128.5zM832 0h-404q-75 0 -141 26t-114.5 74t-77 114.5t-28.5 147.5
q0 79 27.5 146t75.5 116t114.5 76t144.5 27t144.5 -27.5t114.5 -76.5t75.5 -115.5t27.5 -145.5q0 -56 -16.5 -108t-46 -95.5t-69.5 -75.5t-87 -47v-2h260v-34z" />
    <glyph glyph-name="R" unicode="R" horiz-adv-x="596" 
d="M140 0h-38v708h200q43 0 84.5 -8t73 -28.5t51 -55t19.5 -87.5q0 -47 -17.5 -79.5t-45.5 -54t-63.5 -32t-71.5 -11.5l212 -352h-44l-208 349h-152v-349zM140 382h158q94 0 144.5 37.5t50.5 109.5q0 43 -16.5 71t-44 45t-64.5 24t-77 7h-151v-294z" />
    <glyph glyph-name="S" unicode="S" horiz-adv-x="568" 
d="M458 622q-26 34 -67 53t-92 19q-33 0 -65.5 -9.5t-58.5 -28.5t-42 -48t-16 -68q0 -55 28.5 -86.5t71 -52t92 -35.5t92 -37t71 -57.5t28.5 -96.5q0 -48 -18 -84.5t-48.5 -60.5t-70.5 -36.5t-83 -12.5q-66 0 -120.5 23t-91.5 68l25 25q38 -40 85 -61t102 -21q35 0 68 10.5
t58.5 30.5t40.5 49.5t15 67.5q0 41 -16.5 68t-43.5 46t-61 32.5t-70 26t-70 27t-61 36t-43.5 53t-16.5 77.5t18.5 81.5t49 59t70.5 35.5t82 12q60 0 108.5 -21.5t77.5 -59.5z" />
    <glyph glyph-name="T" unicode="T" horiz-adv-x="549" 
d="M293 0h-37v674h-240v34h517v-34h-240v-674z" />
    <glyph glyph-name="U" unicode="U" horiz-adv-x="725" 
d="M363 -19q-77 0 -128.5 24t-82.5 64t-44.5 91.5t-13.5 106.5v441h38v-436q0 -42 9 -87.5t34 -83.5t70.5 -62.5t117.5 -24.5q71 0 116 24t70.5 61.5t35 83.5t9.5 89v436h37v-441q0 -55 -13.5 -106.5t-44.5 -91.5t-82.5 -64t-127.5 -24z" />
    <glyph glyph-name="V" unicode="V" horiz-adv-x="611" 
d="M303 43h2l253 665h40l-270 -708h-47l-268 708h41z" />
    <glyph glyph-name="W" unicode="W" horiz-adv-x="961" 
d="M258 44h3l193 664h50l197 -664h2l195 664h39l-211 -708h-49l-197 663h-2l-194 -663h-49l-211 708h39z" />
    <glyph glyph-name="X" unicode="X" horiz-adv-x="608" 
d="M305 399l206 309h44l-228 -337l253 -371h-46l-230 343l-230 -343h-46l253 371l-229 337h45z" />
    <glyph glyph-name="Y" unicode="Y" horiz-adv-x="558" 
d="M298 0h-38v308l-250 400h46l224 -366l224 366h43l-249 -400v-308z" />
    <glyph glyph-name="Z" unicode="Z" horiz-adv-x="587" 
d="M538 669l-450 -635h461v-34h-502v37l452 637h-440v34h479v-39z" />
    <glyph glyph-name="bracketleft" unicode="[" horiz-adv-x="300" 
d="M220 702h-111v-828h111v-30h-147v888h147v-30z" />
    <glyph glyph-name="backslash" unicode="\" horiz-adv-x="370" 
d="M17 717l31 11l306 -733l-31 -11z" />
    <glyph glyph-name="bracketright" unicode="]" horiz-adv-x="300" 
d="M80 -126h111v828h-111v30h147v-888h-147v30z" />
    <glyph glyph-name="asciicircum" unicode="^" horiz-adv-x="666" 
d="M317 708h32l225 -456h-33l-208 425l-208 -425h-33z" />
    <glyph glyph-name="underscore" unicode="_" horiz-adv-x="500" 
d="M0 -88h500v-29h-500v29z" />
    <glyph glyph-name="grave" unicode="`" horiz-adv-x="240" 
d="M11 708h47l102 -144h-32z" />
    <glyph glyph-name="a" unicode="a" horiz-adv-x="519" 
d="M219 -13q-28 0 -55.5 7.5t-50 24t-36.5 42t-14 61.5q0 50 25 80t64 46.5t85.5 21.5t89.5 5h66v30q0 72 -38 106t-103 34q-42 0 -77.5 -15t-62.5 -40l-20 26q31 28 73.5 44t88.5 16q78 0 126 -41t48 -128v-203q0 -26 2 -55.5t6 -48.5h-34q-3 19 -5 49t-2 50h-3
q-23 -58 -70 -85t-103 -27zM225 17q46 0 78 17.5t52 46t29 64.5t9 74v27h-56q-39 0 -81 -4t-77 -17t-57.5 -37.5t-22.5 -64.5q0 -30 12 -50t30 -32.5t40.5 -18t43.5 -5.5z" />
    <glyph glyph-name="b" unicode="b" horiz-adv-x="629" 
d="M135 110v-110h-36v756h36v-405h3q30 62 83.5 93.5t114.5 31.5q52 0 95 -18.5t73.5 -51.5t47.5 -78t17 -97t-17 -96.5t-48 -77.5t-74 -51.5t-94 -18.5q-30 0 -60 8t-56 23.5t-47.5 38.5t-34.5 53h-3zM532 231q0 43 -14 82t-39.5 68t-62.5 46.5t-83 17.5q-43 0 -79.5 -17
t-63 -46t-41.5 -68t-15 -83t15 -82.5t41.5 -67.5t63 -46t79.5 -17q46 0 83 17t62.5 46t39.5 67.5t14 82.5z" />
    <glyph glyph-name="c" unicode="c" horiz-adv-x="486" 
d="M429 387q-23 27 -57.5 42.5t-72.5 15.5q-46 0 -83 -17t-63.5 -46.5t-40.5 -68.5t-14 -82q0 -44 14 -82.5t40.5 -67.5t63.5 -45.5t83 -16.5q41 0 75.5 14t61.5 40l22 -22q-32 -33 -71.5 -48.5t-87.5 -15.5q-53 0 -96.5 18t-75.5 50.5t-49.5 77.5t-17.5 98t17.5 98
t49.5 77.5t75.5 51t96.5 18.5q46 0 86 -17t69 -49z" />
    <glyph glyph-name="d" unicode="d" horiz-adv-x="629" 
d="M492 110q-30 -60 -83.5 -91.5t-114.5 -31.5q-52 0 -95 18.5t-74 51.5t-48 77.5t-17 96.5t17 96.5t48 77.5t74 52t95 19q61 0 114.5 -31.5t83.5 -93.5h2v405h36v-756h-36v110h-2zM98 231q0 -44 13.5 -82.5t39 -67.5t62.5 -46t83 -17q43 0 79.5 17t63 46t41.5 67.5t15 82.5
t-15 83t-41.5 68t-63 46t-79.5 17q-46 0 -83 -17.5t-62.5 -46.5t-39 -68t-13.5 -82z" />
    <glyph glyph-name="e" unicode="e" horiz-adv-x="561" 
d="M465 259q-1 41 -14.5 75.5t-37 59t-56.5 38t-73 13.5q-47 0 -81.5 -19t-57.5 -47t-34.5 -60.5t-12.5 -59.5h367zM293 -13q-51 0 -94 18.5t-74 51.5t-48 78.5t-17 99.5q0 52 17.5 96.5t47.5 76.5t71 50t88 18q54 0 94.5 -19t68 -50t41 -72t13.5 -84q0 -5 -0.5 -11
t-0.5 -11h-403q0 -40 13 -78t37.5 -67.5t61 -47.5t84.5 -18q54 0 94 22t71 60l25 -21q-72 -92 -190 -92z" />
    <glyph glyph-name="f" unicode="f" horiz-adv-x="286" 
d="M274 432h-120v-432h-36v432h-98v30h97v154q0 42 10.5 71t28.5 47t42 26t51 8q28 0 49 -6l-6 -31q-21 6 -43 6q-27 0 -45.5 -10.5t-29.5 -27.5t-15.5 -39t-4.5 -46v-152h120v-30z" />
    <glyph glyph-name="g" unicode="g" horiz-adv-x="628" 
d="M109 -134q39 -41 86.5 -61t100.5 -20q57 0 95.5 19.5t61 52t32 75t9.5 89.5v93h-2q-14 -30 -35 -53t-47 -39t-56 -24t-60 -8q-52 0 -95 18.5t-74 50.5t-48 76.5t-17 96.5q0 51 17 95.5t48 77.5t74 52t95 19q61 0 115 -32t83 -93h2v111h36v-443q0 -50 -11 -97.5t-38 -85
t-72.5 -60.5t-113.5 -23q-65 0 -118.5 23.5t-91.5 65.5zM98 232q0 -42 13.5 -80.5t39 -67.5t62.5 -46t83 -17q43 0 79.5 16.5t63 45t41.5 67.5t15 83q0 43 -15 81.5t-41.5 67.5t-63 46t-79.5 17q-46 0 -83 -17.5t-62.5 -46.5t-39 -67.5t-13.5 -81.5z" />
    <glyph glyph-name="h" unicode="h" horiz-adv-x="573" 
d="M137 355q10 28 28 50.5t41 38.5t50 24t55 8q47 0 79 -16t52 -43t29 -62.5t9 -73.5v-281h-36v271q0 31 -6 62t-22 56t-42.5 40.5t-68.5 15.5q-35 0 -65.5 -14t-54 -42.5t-37 -71t-13.5 -98.5v-219h-36v756h36v-401h2z" />
    <glyph glyph-name="i" unicode="i" horiz-adv-x="233" 
d="M135 0h-36v462h36v-462zM147 656q0 -15 -9.5 -24t-20.5 -9q-12 0 -21.5 9t-9.5 24q0 14 9.5 23t21.5 9q11 0 20.5 -9t9.5 -23z" />
    <glyph glyph-name="j" unicode="j" horiz-adv-x="234" 
d="M-14 -206q8 -2 15.5 -3t14.5 -1q29 0 45.5 10t25 26t10.5 37t2 43v556h36v-558q0 -33 -5 -60t-18.5 -45.5t-36 -29t-58.5 -10.5q-19 0 -37 5zM148 656q0 -15 -10 -24t-21 -9q-12 0 -21.5 9t-9.5 24q0 14 9.5 23t21.5 9t21.5 -9t9.5 -23z" />
    <glyph glyph-name="k" unicode="k" horiz-adv-x="465" 
d="M135 251h2l231 211h52l-241 -213l267 -249h-53l-256 244h-2v-244h-36v756h36v-505z" />
    <glyph glyph-name="l" unicode="l" horiz-adv-x="234" 
d="M135 0h-36v756h36v-756z" />
    <glyph glyph-name="m" unicode="m" horiz-adv-x="887" 
d="M100 350v25.5t-0.5 31t-1.5 30.5t-2 25h35q1 -9 1.5 -23t1 -29l1 -30t0.5 -26h2q20 57 65.5 89.5t98.5 32.5q63 0 100 -34.5t54 -93.5q21 62 66.5 95t105.5 33q46 0 78 -16t51.5 -44t28.5 -64.5t9 -76.5v-275h-36v266q0 33 -6.5 65t-22 57.5t-41 41t-64.5 15.5
q-36 0 -65.5 -15t-51 -43t-33 -66.5t-11.5 -84.5v-236h-37v275q0 81 -32 125.5t-96 44.5q-32 0 -61.5 -14t-51.5 -42t-35 -69t-13 -95v-225h-37v350z" />
    <glyph glyph-name="n" unicode="n" horiz-adv-x="575" 
d="M131 462q1 -9 1.5 -23t1 -29l1 -30t0.5 -26h2q10 28 28 51t40.5 38.5t49.5 24t55 8.5q47 0 79.5 -16t53 -43t30 -62.5t9.5 -73.5v-281h-36v271q0 31 -6.5 62t-22 56t-42.5 40.5t-68 15.5q-35 0 -65.5 -14t-54 -41t-37 -66.5t-13.5 -90.5v-233h-37v350v25.5t-0.5 31
t-1.5 30.5t-2 25h35z" />
    <glyph glyph-name="o" unicode="o" horiz-adv-x="607" 
d="M547 232q0 -53 -18 -98t-50.5 -77.5t-77 -51t-98.5 -18.5q-53 0 -98 18.5t-77 51t-50 77.5t-18 98t18 98t50 77.5t77 50.5t98 18q54 0 98.5 -18t77 -50.5t50.5 -77.5t18 -98zM509 232q0 44 -14.5 83t-41 68t-64.5 45.5t-86 16.5t-86 -16.5t-64.5 -45.5t-40.5 -68t-14 -83
t14 -83t40.5 -68t64.5 -46t86 -17t86 17t64.5 46t41 68t14.5 83z" />
    <glyph glyph-name="p" unicode="p" horiz-adv-x="629" 
d="M135 -240h-37v702h37v-111h3q29 62 82.5 93.5t114.5 31.5q52 0 95.5 -18.5t74 -51.5t47.5 -78t17 -97t-17 -96.5t-48 -77.5t-74 -51.5t-95 -18.5q-30 0 -59.5 8t-55.5 23.5t-47.5 38.5t-34.5 53h-3v-350zM531 231q0 43 -14 82t-39.5 68t-62 46.5t-82.5 17.5
q-43 0 -79.5 -17t-63.5 -46t-42 -68t-15 -83t15 -82.5t42 -67.5t63.5 -46t79.5 -17q46 0 82.5 17t62 46t39.5 67.5t14 82.5z" />
    <glyph glyph-name="q" unicode="q" horiz-adv-x="629" 
d="M491 110q-14 -30 -35 -53t-47 -38.5t-55.5 -23.5t-59.5 -8q-52 0 -95 18.5t-74 51.5t-48 77.5t-17 96.5t17 97t47.5 78t73.5 51.5t96 18.5q61 0 114.5 -31.5t82.5 -93.5h3v111h36v-702h-36v350h-3zM98 231q0 -44 13.5 -82.5t39 -67.5t62.5 -46t83 -17q43 0 79.5 17t63 46
t41.5 67.5t15 82.5t-15 83t-41.5 68t-63 46t-79.5 17q-46 0 -83 -17.5t-62.5 -46.5t-39 -68t-13.5 -82z" />
    <glyph glyph-name="r" unicode="r" horiz-adv-x="330" 
d="M100 350v25.5t-0.5 31t-1.5 30.5t-2 25h35q1 -9 1.5 -23t1 -29l1 -30t0.5 -26h2q20 62 62.5 92t93.5 30h14t13 -2l-3 -33q-5 1 -11.5 1.5t-12.5 0.5q-38 0 -67.5 -17t-49 -46t-29.5 -68t-10 -84v-228h-37v350v0z" />
    <glyph glyph-name="s" unicode="s" horiz-adv-x="424" 
d="M334 384q-41 61 -120 61q-18 0 -38 -5t-36.5 -16t-27 -28.5t-10.5 -43.5q0 -41 29.5 -61.5t94.5 -36.5q31 -8 58 -18t47 -25t31 -36t11 -51q0 -34 -13 -59.5t-35 -42.5t-50.5 -25.5t-59.5 -8.5q-52 0 -96 20t-73 61l29 21q23 -33 59 -52t81 -19q22 0 44 6t39 19t28 32
t11 45q0 28 -13 46t-33.5 29.5t-46.5 19t-53 14.5q-59 15 -92 42.5t-33 79.5q0 31 13 54.5t34 39t47.5 23t54.5 7.5q49 0 86 -18.5t60 -53.5z" />
    <glyph glyph-name="t" unicode="t" horiz-adv-x="308" 
d="M284 432h-134v-324q0 -48 22.5 -67t57.5 -19q29 0 53 11l3 -31q-14 -5 -30.5 -8.5t-33.5 -3.5q-49 0 -78.5 28t-29.5 84v330h-99v30h98v135h37v-135h134v-30z" />
    <glyph glyph-name="u" unicode="u" horiz-adv-x="575" 
d="M442 0q-1 10 -1.5 24t-1 29t-1 29.5t-0.5 25.5h-2q-10 -29 -28 -51t-41.5 -38t-50.5 -24t-55 -8q-47 0 -79 16t-52 43t-29 62.5t-9 73.5v280h36v-270q0 -31 6 -62.5t21.5 -56.5t42.5 -40.5t68 -15.5q35 0 66 14t54.5 42t37 68.5t13.5 94.5v226h36v-350q0 -11 0.5 -25.5
t1 -30.5t1.5 -31t2 -25h-36z" />
    <glyph glyph-name="v" unicode="v" horiz-adv-x="451" 
d="M249 0h-43l-184 462h40l165 -425h2l161 425h39z" />
    <glyph glyph-name="w" unicode="w" horiz-adv-x="713" 
d="M70 462l122 -420h2l141 420h42l142 -420h2l122 420h38l-139 -462h-43l-143 418h-2l-141 -418h-43l-138 462h38z" />
    <glyph glyph-name="x" unicode="x" horiz-adv-x="462" 
d="M207 243l-163 219h46l140 -194l140 194h45l-163 -218l186 -244h-48l-161 218l-160 -218h-45z" />
    <glyph glyph-name="y" unicode="y" horiz-adv-x="447" 
d="M73 -241q-11 0 -24 1.5t-23 4.5l6 33q19 -7 41 -7q20 0 34.5 7.5t26 19.5t19.5 27.5t14 32.5l42 113l-187 471h40l166 -431l158 431h39l-230 -604q-18 -47 -46 -73t-76 -26z" />
    <glyph glyph-name="z" unicode="z" horiz-adv-x="439" 
d="M383 432l-296 -401h307v-31h-351v29l299 403h-283v30h324v-30z" />
    <glyph glyph-name="braceleft" unicode="{" horiz-adv-x="300" 
d="M0 303q34 0 56 24.5t22 89.5v190q0 35 8 59t22.5 38.5t33.5 21t42 6.5h52v-30h-47q-42 0 -59 -27.5t-17 -71.5v-190q0 -33 -7 -55.5t-17.5 -37t-23.5 -22t-26 -9.5v-2q13 -2 26 -9.5t23.5 -22t17.5 -37t7 -55.5v-190q0 -44 17 -71.5t59 -27.5h47v-30h-52q-23 0 -42 6.5
t-33.5 21t-22.5 38.5t-8 59v190q0 32 -5.5 54t-16 35.5t-25 19t-31.5 5.5v30z" />
    <glyph glyph-name="bar" unicode="|" horiz-adv-x="222" 
d="M128 750v-1000h-34v1000h34z" />
    <glyph glyph-name="braceright" unicode="}" horiz-adv-x="300" 
d="M300 273q-35 0 -56.5 -25t-21.5 -89v-190q0 -35 -8 -59t-22.5 -38.5t-34 -21t-41.5 -6.5h-52v30h47q42 0 59 27.5t17 71.5v190q0 33 7 55.5t17.5 37t23.5 22t26 9.5v2q-13 2 -26 9.5t-23.5 22t-17.5 37t-7 55.5v190q0 44 -17 71.5t-59 27.5h-47v30h52q22 0 41.5 -6.5
t34 -21t22.5 -38.5t8 -59v-190q0 -32 5.5 -54t16 -35.5t25 -19t31.5 -5.5v-30z" />
    <glyph glyph-name="asciitilde" unicode="~" horiz-adv-x="666" 
d="M576 337q-27 -42 -61 -66.5t-72 -24.5q-32 0 -54 8.5t-50 26.5q-20 13 -35 22t-27.5 14.5t-24.5 8t-25 2.5q-39 0 -65 -23.5t-46 -58.5l-24 22q29 48 61.5 70.5t71.5 22.5q28 0 51 -7.5t52 -27.5q39 -27 65.5 -37t48.5 -10q38 0 64.5 25.5t45.5 55.5z" />
    <glyph glyph-name="uni00A0" unicode="&#xa0;" horiz-adv-x="250" 
 />
    <glyph glyph-name="exclamdown" unicode="&#xa1;" horiz-adv-x="292" 
d="M165 -224h-38v514h38v-514zM179 456q0 -15 -9.5 -25t-23.5 -10t-23.5 10t-9.5 25q0 14 9.5 24t23.5 10t23.5 -10t9.5 -24z" />
    <glyph glyph-name="cent" unicode="&#xa2;" 
d="M300 443q-41 -4 -73.5 -22.5t-55.5 -47t-35.5 -65t-12.5 -77.5t12.5 -77.5t35.5 -65t55.5 -46.5t73.5 -22v423zM330 19q37 2 69.5 16t55.5 39l27 -22q-30 -32 -70 -47.5t-82 -16.5v-60h-30v60q-48 3 -87.5 22.5t-68 52t-44 75.5t-15.5 93t15.5 92.5t44 75t68 52
t87.5 23.5v66h30v-65q43 -2 82.5 -19t68.5 -48l-29 -23q-22 26 -54 41.5t-68 16.5v-424z" />
    <glyph glyph-name="sterling" unicode="&#xa3;" 
d="M389 352h-169v-320h258v-32h-402v32h107v320h-98v32h98v123q0 47 11 87t34.5 69.5t59 46t85.5 16.5q79 0 130 -48l-24 -27q-20 20 -47.5 31t-59.5 11q-43 0 -72 -16t-47 -42.5t-25.5 -60.5t-7.5 -71v-119h169v-32z" />
    <glyph glyph-name="currency" unicode="&#xa4;" horiz-adv-x="819" 
d="M601 472q26 -32 40.5 -72.5t14.5 -89.5q0 -51 -15.5 -93.5t-43.5 -74.5q3 -4 17 -18l29.5 -29.5l29.5 -29.5t18 -17q-4 -3 -12 -12t-12 -13l-95 95q-32 -27 -72.5 -42t-89.5 -15q-48 0 -89 15t-73 44l-97 -97q-3 4 -11.5 13t-12.5 12l96 96q-27 32 -42 73.5t-15 92.5
q0 48 14 88.5t40 72.5q-4 3 -17.5 16.5l-29 29l-29 29t-17.5 16.5q4 3 13 12l12 12l91 -91q32 29 74 45t93 16t92.5 -15.5t73.5 -44.5l90 90q4 -3 12.5 -12t12.5 -12zM410 522q-48 0 -86 -16.5t-65 -45.5t-41.5 -67.5t-14.5 -82.5t14.5 -83.5t41.5 -68.5t65 -46t86 -17
t86.5 17t65.5 46t41.5 68.5t14.5 83.5t-14.5 82.5t-41.5 67.5t-65.5 45.5t-86.5 16.5z" />
    <glyph glyph-name="yen" unicode="&#xa5;" 
d="M265 223v123h-182v30h170l-232 332h46l217 -321l217 321h44l-230 -332h168v-30h-182v-123h182v-30h-182v-193h-36v193h-182v30h182z" />
    <glyph glyph-name="brokenbar" unicode="&#xa6;" horiz-adv-x="222" 
d="M126 675v-337h-30v337h30zM126 165v-337h-30v337h30z" />
    <glyph glyph-name="section" unicode="&#xa7;" 
d="M424 635q-16 27 -48.5 44t-77.5 17q-26 0 -50.5 -7.5t-43.5 -22.5t-30.5 -37t-11.5 -51q0 -28 10 -47.5t27 -33t38.5 -23.5t44.5 -20l49 -21q31 -13 55.5 -27t41.5 -31.5t26.5 -38.5t9.5 -49q0 -30 -10 -53.5t-27 -40.5t-39 -28t-46 -16q46 -21 71.5 -51t25.5 -78
q0 -38 -14.5 -66.5t-38.5 -48t-56.5 -29.5t-68.5 -10q-57 0 -102 21.5t-74 61.5l32 21q24 -36 62 -53.5t83 -17.5q27 0 52 7t44.5 21.5t31.5 36.5t12 53q0 24 -9.5 42.5t-25.5 32.5t-37 25t-45 21l-64 29q-29 13 -52 25.5t-38.5 28.5t-23.5 37.5t-8 52.5q0 29 11 52t28 40
t39 28t44 16q-21 10 -38 21t-30 26t-20 35t-7 48q0 37 14 65t38 47t55.5 28.5t66.5 9.5q54 0 93.5 -18.5t60.5 -53.5zM256 427q-21 -3 -42.5 -10.5t-39 -21.5t-28.5 -35t-11 -50q0 -27 10 -45.5t26.5 -32t39 -23.5t46.5 -20l51 -21q22 2 43.5 10t38 22t27 34.5t10.5 47.5
q0 26 -10 45.5t-27 34t-39.5 25.5t-47.5 21z" />
    <glyph glyph-name="dieresis" unicode="&#xa8;" horiz-adv-x="240" 
d="M5 655q0 14 9.5 23.5t22.5 9.5q14 0 23 -9.5t9 -23.5t-9.5 -23.5t-22.5 -9.5t-22.5 9.5t-9.5 23.5zM171 655q0 14 9 23.5t23 9.5q13 0 22.5 -9.5t9.5 -23.5t-9.5 -23.5t-22.5 -9.5q-14 0 -23 9.5t-9 23.5z" />
    <glyph glyph-name="copyright" unicode="&#xa9;" horiz-adv-x="800" 
d="M564 194q-26 -31 -65 -48.5t-84 -17.5q-48 0 -88 16.5t-69 46.5t-45.5 71.5t-16.5 90.5t16.5 90.5t45.5 71.5t69 47t88 17q42 0 81 -17t64 -47l-28 -22q-20 23 -51 38.5t-66 15.5q-42 0 -75.5 -15.5t-57.5 -42.5t-37 -62t-13 -74t13 -73.5t36.5 -61t57.5 -42t76 -15.5
q34 0 66.5 13t56.5 40zM20 353q0 79 30 147.5t81.5 119.5t121 80.5t148.5 29.5q78 0 147 -29.5t120.5 -80.5t81.5 -119.5t30 -147.5q0 -78 -30 -146.5t-81.5 -119.5t-120.5 -80t-147 -29q-79 0 -148.5 29t-121 80t-81.5 119.5t-30 146.5zM54 353q0 -71 27.5 -133.5
t74.5 -109t110 -73t135 -26.5q71 0 134 26.5t110 73t74 109t27 133.5q0 72 -27 134.5t-74 109t-110 73.5t-134 27q-72 0 -135 -27t-110 -73.5t-74.5 -109t-27.5 -134.5z" />
    <glyph glyph-name="ordfeminine" unicode="&#xaa;" horiz-adv-x="353" 
d="M259 615q0 39 -22 59t-62 20q-28 0 -53 -10t-42 -27l-17 22q19 18 48.5 29.5t65.5 11.5q54 0 83.5 -27t29.5 -77v-124q0 -16 1.5 -33t3.5 -28h-30q-2 11 -3.5 24t-1.5 33h-1q-18 -33 -48.5 -48.5t-63.5 -15.5q-17 0 -35 4.5t-32.5 15t-24 26.5t-9.5 40q0 32 18.5 51
t48.5 28.5t68 12.5t78 3v10zM244 580q-32 0 -62 -2t-53 -9.5t-37 -21.5t-14 -37q0 -17 7 -28.5t18 -18t24.5 -9.5t27.5 -3q50 0 77 31t27 75v23h-15z" />
    <glyph glyph-name="guillemotleft" unicode="&#xab;" horiz-adv-x="481" 
d="M112 238l115 -182l-26 -19l-128 201l127 200l26 -18zM283 238l115 -182l-26 -19l-128 201l127 200l26 -18z" />
    <glyph glyph-name="logicalnot" unicode="&#xac;" horiz-adv-x="666" 
d="M578 133h-34v237h-455v32h489v-269z" />
    <glyph glyph-name="uni00AD" unicode="&#xad;" horiz-adv-x="306" 
d="M250 235h-194v31h194v-31z" />
    <glyph glyph-name="registered" unicode="&#xae;" horiz-adv-x="600" 
d="M72 494q0 47 18 88.5t49 72t73 48t89 17.5t88.5 -17.5t72 -48t48.5 -72t18 -88.5t-18 -88t-48.5 -71.5t-72 -48t-88.5 -17.5t-89 17.5t-73 48t-49 71.5t-18 88zM98 494q0 -41 16 -78t43.5 -64.5t64.5 -43.5t79 -16t78.5 16t63.5 43.5t43 64.5t16 78q0 42 -16 78.5
t-43 63.5t-63.5 43t-78.5 16t-79 -16t-64.5 -43t-43.5 -63.5t-16 -78.5zM220 622h86q38 0 62 -17.5t24 -54.5q0 -31 -19.5 -48t-45.5 -20l75 -113h-35l-70 110h-48v-110h-29v253zM293 502q30 0 50 10t20 39q0 28 -18.5 37t-39.5 9h-56v-95h44z" />
    <glyph glyph-name="macron" unicode="&#xaf;" horiz-adv-x="240" 
d="M242 615h-244v30h244v-30z" />
    <glyph glyph-name="degree" unicode="&#xb0;" horiz-adv-x="400" 
d="M346 571q0 -31 -11.5 -57.5t-31 -46t-46 -31t-57.5 -11.5t-57.5 11.5t-46 31t-31 46t-11.5 57.5t11.5 57.5t31 46t46 31t57.5 11.5t57.5 -11.5t46 -31t31 -46t11.5 -57.5zM318 571q0 24 -9.5 45.5t-25.5 37.5t-37.5 25.5t-45.5 9.5t-45.5 -9.5t-37.5 -25.5t-25.5 -37.5
t-9.5 -45.5t9.5 -45.5t25.5 -37.5t37.5 -25.5t45.5 -9.5t45.5 9.5t37.5 25.5t25.5 37.5t9.5 45.5z" />
    <glyph glyph-name="plusminus" unicode="&#xb1;" horiz-adv-x="666" 
d="M89 376h225v184h34v-184h230v-32h-230v-180h-33v180h-226v32zM92 80h483v-32h-483v32z" />
    <glyph glyph-name="twosuperior" unicode="&#xb2;" horiz-adv-x="356" 
d="M304 453h-257v31l158 169q37 40 50.5 66t13.5 52q0 40 -24.5 61.5t-61.5 21.5q-33 0 -57.5 -18t-34.5 -56l-32 7q11 48 45.5 72t78.5 24q56 0 88 -30.5t32 -78.5q0 -20 -4.5 -36.5t-14 -33t-24.5 -35t-37 -41.5l-137 -146h218v-29z" />
    <glyph glyph-name="threesuperior" unicode="&#xb3;" horiz-adv-x="356" 
d="M166 443q-46 0 -78 20.5t-49 57.5l30 11q14 -32 41.5 -46t55.5 -14q45 0 71 25t26 69q0 24 -10 41.5t-25.5 29t-36 17t-41.5 5.5h-20v28h19q49 0 74.5 25t25.5 62q0 39 -24.5 60t-58.5 21q-26 0 -48 -12.5t-34 -32.5l-26 15q38 58 108 58q54 0 84.5 -28.5t30.5 -79.5
q0 -41 -22 -66.5t-58 -33.5l-1 -2q45 -8 70 -36t25 -71q0 -30 -10 -53t-27.5 -38.5t-41 -23.5t-50.5 -8z" />
    <glyph glyph-name="acute" unicode="&#xb4;" horiz-adv-x="240" 
d="M112 564h-32l102 144h47z" />
    <glyph glyph-name="mu" unicode="&#xb5;" horiz-adv-x="556" 
d="M87 462h36v-270q0 -33 6 -64.5t22 -55.5t43 -39t68 -15q35 0 66 14.5t54 41.5t36.5 66t13.5 89v233h35v-350q0 -12 0.5 -27t1 -30.5t1.5 -30t1 -24.5h-38v107h-2q-22 -56 -70.5 -88t-104.5 -32q-50 0 -82.5 19t-50.5 49v-283h-36v690z" />
    <glyph glyph-name="paragraph" unicode="&#xb6;" horiz-adv-x="600" 
d="M496 -126h-35v806h-146v-806h-35v459q-48 0 -87.5 14.5t-67.5 39t-43 57.5t-15 70q0 95 59 144.5t165 49.5h205v-834z" />
    <glyph glyph-name="periodcentered" unicode="&#xb7;" horiz-adv-x="246" 
d="M156 273q0 -14 -9.5 -24t-23.5 -10t-23 10t-9 24t9 24t23 10t23.5 -10t9.5 -24z" />
    <glyph glyph-name="cedilla" unicode="&#xb8;" horiz-adv-x="240" 
d="M88 -83q22 7 48 7q15 0 30 -3.5t27.5 -12t20 -21.5t7.5 -32q0 -24 -11 -40t-28 -25.5t-37 -13t-38 -3.5q-19 0 -44 5t-47 15l8 23q19 -9 41.5 -13t40.5 -4q13 0 27.5 2.5t26.5 8.5t20 17t8 28q0 28 -21 37.5t-45 9.5q-13 0 -31.5 -3.5t-29.5 -9.5l-13 11l67 100h28z" />
    <glyph glyph-name="onesuperior" unicode="&#xb9;" horiz-adv-x="356" 
d="M204 453h-34v382l-86 -62l-21 24l110 77h31v-421z" />
    <glyph glyph-name="ordmasculine" unicode="&#xba;" horiz-adv-x="353" 
d="M322 573q0 -33 -10.5 -60t-30 -47t-46 -31t-58.5 -11t-59 11t-46.5 31t-30 47t-10.5 60t10.5 60t30 46.5t46.5 30.5t59 11t58.5 -11t46 -30.5t30 -46.5t10.5 -60zM290 573q0 25 -7.5 47t-22 38.5t-35.5 26t-48 9.5t-48 -9.5t-36 -26t-22.5 -38.5t-7.5 -47t7.5 -47.5
t22.5 -39t36 -26.5t48 -10t48 10t35.5 26.5t22 39t7.5 47.5z" />
    <glyph glyph-name="guillemotright" unicode="&#xbb;" horiz-adv-x="481" 
d="M369 238l-114 182l25 19l129 -201l-128 -200l-26 18zM198 238l-114 182l25 19l129 -201l-128 -200l-26 18z" />
    <glyph glyph-name="onequarter" unicode="&#xbc;" horiz-adv-x="812" 
d="M687 133h65v-29h-65v-104h-31v104h-193v31l182 289h42v-291zM653 383l-157 -250h160v250h-3zM204 287h-34v382l-86 -62l-21 24l110 77h31v-421zM186 -28l-27 16l443 749l27 -16z" />
    <glyph glyph-name="onehalf" unicode="&#xbd;" horiz-adv-x="812" 
d="M745 0h-257v31l158 169q38 40 51 66.5t13 51.5q0 40 -24.5 61.5t-62.5 21.5q-33 0 -57 -18t-34 -56l-32 7q11 48 45.5 72t77.5 24q57 0 89 -30.5t32 -77.5q0 -20 -4 -37t-13.5 -33.5t-24.5 -34.5t-37 -41l-137 -147h217v-29zM186 -28l-27 16l443 749l27 -16zM204 287h-34
v382l-86 -62l-21 24l123 77h18v-421z" />
    <glyph glyph-name="threequarters" unicode="&#xbe;" horiz-adv-x="812" 
d="M656 104h-193v31l182 289h42v-291h65v-29h-65v-104h-31v104zM166 280q-46 0 -78 20.5t-49 57.5l30 11q14 -32 41.5 -46t55.5 -14q45 0 71 25t26 69q0 24 -10 41.5t-25.5 29t-36 17t-41.5 5.5h-20v28h19q49 0 74.5 25t25.5 62q0 39 -24.5 60t-58.5 21q-26 0 -48 -12.5
t-34 -32.5l-26 15q38 58 108 58q54 0 84.5 -28.5t30.5 -79.5q0 -41 -22.5 -66.5t-58.5 -33.5v-2q45 -8 70 -36t25 -71q0 -30 -10 -53t-27.5 -38.5t-41 -23.5t-50.5 -8zM656 133v250h-3l-157 -250h160zM186 -28l-27 16l443 749l27 -16z" />
    <glyph glyph-name="questiondown" unicode="&#xbf;" horiz-adv-x="475" 
d="M219 286h37v-55q0 -21 -4 -40t-14.5 -38t-29 -39t-46.5 -43q-38 -31 -57.5 -61t-19.5 -77q0 -34 12 -60t32 -44t47.5 -27t58.5 -9q64 0 104.5 38t49.5 98l36 -6q-14 -78 -66.5 -120.5t-126.5 -42.5q-38 0 -72 11t-59 33t-39.5 53.5t-14.5 73.5q0 31 7.5 55t20 43t29 34.5
t34.5 30.5q24 20 39.5 36t25 32.5t13 35t3.5 44.5v44zM201 456q0 14 9.5 24t23.5 10t23 -10t9 -24q0 -15 -9 -25t-23 -10t-23.5 10t-9.5 25z" />
    <glyph glyph-name="Agrave" unicode="&#xc0;" horiz-adv-x="677" 
d="M57 0h-41l306 708h41l298 -708h-41l-82 198h-398zM154 231h370l-183 443zM212 908h47l102 -144h-32z" />
    <glyph glyph-name="Aacute" unicode="&#xc1;" horiz-adv-x="677" 
d="M57 0h-41l306 708h41l298 -708h-41l-82 198h-398zM154 231h370l-183 443zM355 764h-32l102 144h47z" />
    <glyph glyph-name="Acircumflex" unicode="&#xc2;" horiz-adv-x="677" 
d="M57 0h-41l306 708h41l298 -708h-41l-82 198h-398zM154 231h370l-183 443zM469 764h-36l-91 125l-91 -125h-36l105 144h44z" />
    <glyph glyph-name="Atilde" unicode="&#xc3;" horiz-adv-x="677" 
d="M57 0h-41l306 708h41l298 -708h-41l-82 198h-398zM154 231h370l-183 443zM211 787q5 37 22 59t45 22q17 0 32 -6t35 -18q24 -14 36.5 -19t24.5 -5q20 0 29.5 13t13.5 36h25q-5 -37 -22 -58t-46 -21q-16 0 -30.5 5.5t-35.5 18.5q-23 14 -36 19t-26 5q-19 0 -28.5 -14
t-14.5 -37h-24z" />
    <glyph glyph-name="Adieresis" unicode="&#xc4;" horiz-adv-x="677" 
d="M57 0h-41l306 708h41l298 -708h-41l-82 198h-398zM154 231h370l-183 443zM227 855q0 14 9.5 23.5t22.5 9.5q14 0 23 -9.5t9 -23.5t-9.5 -23.5t-22.5 -9.5t-22.5 9.5t-9.5 23.5zM393 855q0 14 9 23.5t23 9.5q13 0 22.5 -9.5t9.5 -23.5t-9.5 -23.5t-22.5 -9.5
q-14 0 -23 9.5t-9 23.5z" />
    <glyph glyph-name="Aring" unicode="&#xc5;" horiz-adv-x="677" 
d="M57 0h-41l306 708h41l298 -708h-41l-82 198h-398zM154 231h370l-183 443zM438 850q0 -20 -7.5 -37.5t-21 -30.5t-31 -20t-36.5 -7q-20 0 -37 7t-30.5 20t-21 30.5t-7.5 37.5t7.5 37.5t21 30t30.5 20t37 7.5q19 0 36.5 -7.5t31 -20t21 -30t7.5 -37.5zM414 850q0 30 -21 51
t-51 21t-51 -21t-21 -51t21 -51t51 -21t51 21t21 51z" />
    <glyph glyph-name="AE" unicode="&#xc6;" horiz-adv-x="975" 
d="M537 34h382v-34h-419v204h-307l-133 -204h-43l460 708h427v-34h-367v-290h343v-33h-343v-317zM500 237v437h-5l-282 -437h287z" />
    <glyph glyph-name="Ccedilla" unicode="&#xc7;" horiz-adv-x="723" 
d="M687 95q-41 -53 -107.5 -83t-144.5 -31l-42 -64q22 7 48 7q15 0 30 -3.5t27.5 -12t20 -21.5t7.5 -32q0 -24 -11 -40t-28 -25.5t-37 -13t-38 -3.5q-19 0 -44 5t-47 15l8 23q19 -9 41.5 -13t40.5 -4q13 0 27.5 2.5t26.5 8.5t20 17t8 28q0 28 -21 37.5t-45 9.5
q-13 0 -31.5 -3.5t-29.5 -9.5l-13 11l55 82q-75 4 -138 33.5t-108 78.5t-70 115.5t-25 144.5q0 81 27 149.5t75.5 118t115.5 77.5t146 28q69 0 133 -24.5t106 -72.5l-27 -25q-18 21 -42.5 37.5t-52 27.5t-57.5 17t-60 6q-74 0 -133.5 -26.5t-102.5 -72.5t-66 -108t-23 -132
t23 -131.5t65.5 -107.5t102.5 -73t134 -27q64 0 126 25t102 77z" />
    <glyph glyph-name="Egrave" unicode="&#xc8;" horiz-adv-x="591" 
d="M139 34h398v-34h-435v708h421v-34h-384v-290h360v-33h-360v-317zM199 908h47l102 -144h-32z" />
    <glyph glyph-name="Eacute" unicode="&#xc9;" horiz-adv-x="591" 
d="M139 34h398v-34h-435v708h421v-34h-384v-290h360v-33h-360v-317zM312 764h-32l102 144h47z" />
    <glyph glyph-name="Ecircumflex" unicode="&#xca;" horiz-adv-x="591" 
d="M139 34h398v-34h-435v708h421v-34h-384v-290h360v-33h-360v-317zM442 764h-36l-91 125l-91 -125h-36l105 144h44z" />
    <glyph glyph-name="Edieresis" unicode="&#xcb;" horiz-adv-x="591" 
d="M139 34h398v-34h-435v708h421v-34h-384v-290h360v-33h-360v-317zM201 855q0 14 9.5 23.5t22.5 9.5q14 0 23 -9.5t9 -23.5t-9.5 -23.5t-22.5 -9.5t-22.5 9.5t-9.5 23.5zM367 855q0 14 9 23.5t23 9.5q13 0 22.5 -9.5t9.5 -23.5t-9.5 -23.5t-22.5 -9.5q-14 0 -23 9.5
t-9 23.5z" />
    <glyph glyph-name="Igrave" unicode="&#xcc;" horiz-adv-x="242" 
d="M140 0h-38v708h38v-708zM-8 908h47l102 -144h-32z" />
    <glyph glyph-name="Iacute" unicode="&#xcd;" horiz-adv-x="242" 
d="M140 0h-38v708h38v-708zM133 764h-32l102 144h47z" />
    <glyph glyph-name="Icircumflex" unicode="&#xce;" horiz-adv-x="242" 
d="M140 0h-38v708h38v-708zM247 764h-36l-91 125l-91 -125h-36l105 144h44z" />
    <glyph glyph-name="Idieresis" unicode="&#xcf;" horiz-adv-x="242" 
d="M140 0h-38v708h38v-708zM6 855q0 14 9.5 23.5t22.5 9.5q14 0 23 -9.5t9 -23.5t-9.5 -23.5t-22.5 -9.5t-22.5 9.5t-9.5 23.5zM172 855q0 14 9 23.5t23 9.5q13 0 22.5 -9.5t9.5 -23.5t-9.5 -23.5t-22.5 -9.5q-14 0 -23 9.5t-9 23.5z" />
    <glyph glyph-name="Eth" unicode="&#xd0;" horiz-adv-x="766" 
d="M100 355h-78v30h78v323h211q78 0 147.5 -21t122.5 -64.5t84 -110.5t31 -158t-31 -157.5t-84 -110t-122.5 -65t-147.5 -21.5h-211v355zM138 34h163q79 0 144.5 21t112 61.5t72.5 100t26 137.5t-26 137.5t-72.5 100t-112 61.5t-144.5 21h-163v-289h265v-30h-265v-321z" />
    <glyph glyph-name="Ntilde" unicode="&#xd1;" horiz-adv-x="773" 
d="M631 52h2v656h38v-708h-50l-479 658h-2v-658h-38v708h50zM259 787q5 37 22 59t45 22q17 0 32 -6t35 -18q24 -14 36.5 -19t24.5 -5q20 0 29.5 13t13.5 36h25q-5 -37 -22 -58t-46 -21q-16 0 -30.5 5.5t-35.5 18.5q-23 14 -36 19t-26 5q-19 0 -28.5 -14t-14.5 -37h-24z" />
    <glyph glyph-name="Ograve" unicode="&#xd2;" horiz-adv-x="865" 
d="M798 354q0 -81 -27.5 -149.5t-76.5 -118t-116 -77.5t-145 -28q-79 0 -146 28t-116 77.5t-76.5 118t-27.5 149.5t27.5 149.5t76.5 118t116 77.5t146 28t145.5 -28t115.5 -77.5t76.5 -118t27.5 -149.5zM759 354q0 70 -23.5 132t-66.5 108t-103 73t-133 27q-74 0 -134 -27
t-103 -73t-66.5 -108t-23.5 -132t23 -131.5t66 -107.5t103.5 -73t134.5 -27t134 27t103 73t66 107.5t23 131.5zM331 908h47l102 -144h-32z" />
    <glyph glyph-name="Oacute" unicode="&#xd3;" horiz-adv-x="865" 
d="M798 354q0 -81 -27.5 -149.5t-76.5 -118t-116 -77.5t-145 -28q-79 0 -146 28t-116 77.5t-76.5 118t-27.5 149.5t27.5 149.5t76.5 118t116 77.5t146 28t145.5 -28t115.5 -77.5t76.5 -118t27.5 -149.5zM759 354q0 70 -23.5 132t-66.5 108t-103 73t-133 27q-74 0 -134 -27
t-103 -73t-66.5 -108t-23.5 -132t23 -131.5t66 -107.5t103.5 -73t134.5 -27t134 27t103 73t66 107.5t23 131.5zM429 764h-32l102 144h47z" />
    <glyph glyph-name="Ocircumflex" unicode="&#xd4;" horiz-adv-x="865" 
d="M798 354q0 -81 -27.5 -149.5t-76.5 -118t-116 -77.5t-145 -28q-79 0 -146 28t-116 77.5t-76.5 118t-27.5 149.5t27.5 149.5t76.5 118t116 77.5t146 28t145.5 -28t115.5 -77.5t76.5 -118t27.5 -149.5zM759 354q0 70 -23.5 132t-66.5 108t-103 73t-133 27q-74 0 -134 -27
t-103 -73t-66.5 -108t-23.5 -132t23 -131.5t66 -107.5t103.5 -73t134.5 -27t134 27t103 73t66 107.5t23 131.5zM561 764h-36l-91 125l-91 -125h-36l105 144h44z" />
    <glyph glyph-name="Otilde" unicode="&#xd5;" horiz-adv-x="865" 
d="M798 354q0 -81 -27.5 -149.5t-76.5 -118t-116 -77.5t-145 -28q-79 0 -146 28t-116 77.5t-76.5 118t-27.5 149.5t27.5 149.5t76.5 118t116 77.5t146 28t145.5 -28t115.5 -77.5t76.5 -118t27.5 -149.5zM759 354q0 70 -23.5 132t-66.5 108t-103 73t-133 27q-74 0 -134 -27
t-103 -73t-66.5 -108t-23.5 -132t23 -131.5t66 -107.5t103.5 -73t134.5 -27t134 27t103 73t66 107.5t23 131.5zM303 787q5 37 22 59t45 22q17 0 32 -6t35 -18q24 -14 36.5 -19t24.5 -5q20 0 29.5 13t13.5 36h25q-5 -37 -22 -58t-46 -21q-16 0 -30.5 5.5t-35.5 18.5
q-23 14 -36 19t-26 5q-19 0 -28.5 -14t-14.5 -37h-24z" />
    <glyph glyph-name="Odieresis" unicode="&#xd6;" horiz-adv-x="865" 
d="M798 354q0 -81 -27.5 -149.5t-76.5 -118t-116 -77.5t-145 -28q-79 0 -146 28t-116 77.5t-76.5 118t-27.5 149.5t27.5 149.5t76.5 118t116 77.5t146 28t145.5 -28t115.5 -77.5t76.5 -118t27.5 -149.5zM759 354q0 70 -23.5 132t-66.5 108t-103 73t-133 27q-74 0 -134 -27
t-103 -73t-66.5 -108t-23.5 -132t23 -131.5t66 -107.5t103.5 -73t134.5 -27t134 27t103 73t66 107.5t23 131.5zM319 855q0 14 9.5 23.5t22.5 9.5q14 0 23 -9.5t9 -23.5t-9.5 -23.5t-22.5 -9.5t-22.5 9.5t-9.5 23.5zM485 855q0 14 9 23.5t23 9.5q13 0 22.5 -9.5t9.5 -23.5
t-9.5 -23.5t-22.5 -9.5q-14 0 -23 9.5t-9 23.5z" />
    <glyph glyph-name="multiply" unicode="&#xd7;" horiz-adv-x="666" 
d="M334 329l173 173l22 -22l-173 -174l173 -173l-23 -22l-172 172l-173 -172l-23 22l174 173l-174 174l22 22z" />
    <glyph glyph-name="Oslash" unicode="&#xd8;" horiz-adv-x="865" 
d="M679 628q52 -50 81 -119.5t29 -154.5q0 -81 -27.5 -149.5t-76.5 -118t-116 -77.5t-145 -28q-71 0 -132 22t-109 63l-70 -79l-21 20l70 79q-49 49 -76.5 117.5t-27.5 150.5q0 81 27.5 149.5t76.5 118t116 77.5t146 28q67 0 126 -20.5t107 -58.5l70 79l21 -20zM208 93
q42 -37 95.5 -58t120.5 -21q74 0 134.5 27t103 73.5t65.5 108t23 131.5q0 72 -24.5 135.5t-71.5 110.5zM633 621q-41 34 -93.5 53.5t-115.5 19.5q-74 0 -134 -27t-103 -73t-66.5 -108t-23.5 -132t23 -132t67 -108z" />
    <glyph glyph-name="Ugrave" unicode="&#xd9;" horiz-adv-x="725" 
d="M363 -19q-77 0 -128.5 24t-82.5 64t-44.5 91.5t-13.5 106.5v441h38v-436q0 -42 9 -87.5t34 -83.5t70.5 -62.5t117.5 -24.5q71 0 116 24t70.5 61.5t35 83.5t9.5 89v436h37v-441q0 -55 -13.5 -106.5t-44.5 -91.5t-82.5 -64t-127.5 -24zM256 908h47l102 -144h-32z" />
    <glyph glyph-name="Uacute" unicode="&#xda;" horiz-adv-x="725" 
d="M363 -19q-77 0 -128.5 24t-82.5 64t-44.5 91.5t-13.5 106.5v441h38v-436q0 -42 9 -87.5t34 -83.5t70.5 -62.5t117.5 -24.5q71 0 116 24t70.5 61.5t35 83.5t9.5 89v436h37v-441q0 -55 -13.5 -106.5t-44.5 -91.5t-82.5 -64t-127.5 -24zM350 764h-32l102 144h47z" />
    <glyph glyph-name="Ucircumflex" unicode="&#xdb;" horiz-adv-x="725" 
d="M363 -19q-77 0 -128.5 24t-82.5 64t-44.5 91.5t-13.5 106.5v441h38v-436q0 -42 9 -87.5t34 -83.5t70.5 -62.5t117.5 -24.5q71 0 116 24t70.5 61.5t35 83.5t9.5 89v436h37v-441q0 -55 -13.5 -106.5t-44.5 -91.5t-82.5 -64t-127.5 -24zM490 764h-36l-91 125l-91 -125h-36
l105 144h44z" />
    <glyph glyph-name="Udieresis" unicode="&#xdc;" horiz-adv-x="725" 
d="M363 -19q-77 0 -128.5 24t-82.5 64t-44.5 91.5t-13.5 106.5v441h38v-436q0 -42 9 -87.5t34 -83.5t70.5 -62.5t117.5 -24.5q71 0 116 24t70.5 61.5t35 83.5t9.5 89v436h37v-441q0 -55 -13.5 -106.5t-44.5 -91.5t-82.5 -64t-127.5 -24zM248 855q0 14 9.5 23.5t22.5 9.5
q14 0 23 -9.5t9 -23.5t-9.5 -23.5t-22.5 -9.5t-22.5 9.5t-9.5 23.5zM414 855q0 14 9 23.5t23 9.5q13 0 22.5 -9.5t9.5 -23.5t-9.5 -23.5t-22.5 -9.5q-14 0 -23 9.5t-9 23.5z" />
    <glyph glyph-name="Yacute" unicode="&#xdd;" horiz-adv-x="558" 
d="M298 0h-38v308l-250 400h46l224 -366l224 366h43l-249 -400v-308zM292 764h-32l102 144h47z" />
    <glyph glyph-name="Thorn" unicode="&#xde;" horiz-adv-x="574" 
d="M102 708h38v-157h157q43 0 83.5 -9.5t72 -30.5t50.5 -55.5t19 -84.5q0 -46 -17 -80.5t-46 -58t-68.5 -35.5t-85.5 -12h-165v-185h-38v708zM140 218h163q36 0 68.5 8.5t57.5 27.5t39.5 47.5t14.5 69.5t-15.5 69t-41 45.5t-59 25t-68.5 7.5h-159v-300z" />
    <glyph glyph-name="germandbls" unicode="&#xdf;" horiz-adv-x="591" 
d="M134 0h-36v540q0 46 11.5 87.5t36 72.5t62.5 49.5t91 18.5q40 0 74 -12t59 -34.5t39 -55t14 -72.5q0 -69 -36.5 -109.5t-93.5 -54.5v-2q37 -5 69.5 -20.5t56.5 -42t38 -64.5t14 -88t-16 -91.5t-46 -71t-72 -45.5t-94 -16q-11 0 -24.5 1t-25.5 3v32q14 -2 26 -3t21 -1
q89 0 141 52t52 141q0 50 -15.5 87t-43 61.5t-65 36.5t-80.5 12h-13v33h13q33 0 62 9.5t50.5 28t33.5 46.5t12 65q0 34 -11.5 60.5t-31.5 45t-47.5 28t-59.5 9.5q-48 0 -80 -17.5t-51 -46t-26.5 -64t-7.5 -71.5v-537z" />
    <glyph glyph-name="agrave" unicode="&#xe0;" horiz-adv-x="519" 
d="M219 -13q-28 0 -55.5 7.5t-50 24t-36.5 42t-14 61.5q0 50 25 80t64 46.5t85.5 21.5t89.5 5h66v30q0 72 -38 106t-103 34q-42 0 -77.5 -15t-62.5 -40l-20 26q31 28 73.5 44t88.5 16q78 0 126 -41t48 -128v-203q0 -26 2 -55.5t6 -48.5h-34q-3 19 -5 49t-2 50h-3
q-23 -58 -70 -85t-103 -27zM225 17q46 0 78 17.5t52 46t29 64.5t9 74v27h-56q-39 0 -81 -4t-77 -17t-57.5 -37.5t-22.5 -64.5q0 -30 12 -50t30 -32.5t40.5 -18t43.5 -5.5zM158 708h47l102 -144h-32z" />
    <glyph glyph-name="aacute" unicode="&#xe1;" horiz-adv-x="519" 
d="M219 -13q-28 0 -55.5 7.5t-50 24t-36.5 42t-14 61.5q0 50 25 80t64 46.5t85.5 21.5t89.5 5h66v30q0 72 -38 106t-103 34q-42 0 -77.5 -15t-62.5 -40l-20 26q31 28 73.5 44t88.5 16q78 0 126 -41t48 -128v-203q0 -26 2 -55.5t6 -48.5h-34q-3 19 -5 49t-2 50h-3
q-23 -58 -70 -85t-103 -27zM225 17q46 0 78 17.5t52 46t29 64.5t9 74v27h-56q-39 0 -81 -4t-77 -17t-57.5 -37.5t-22.5 -64.5q0 -30 12 -50t30 -32.5t40.5 -18t43.5 -5.5zM259 564h-32l102 144h47z" />
    <glyph glyph-name="acircumflex" unicode="&#xe2;" horiz-adv-x="519" 
d="M219 -13q-28 0 -55.5 7.5t-50 24t-36.5 42t-14 61.5q0 50 25 80t64 46.5t85.5 21.5t89.5 5h66v30q0 72 -38 106t-103 34q-42 0 -77.5 -15t-62.5 -40l-20 26q31 28 73.5 44t88.5 16q78 0 126 -41t48 -128v-203q0 -26 2 -55.5t6 -48.5h-34q-3 19 -5 49t-2 50h-3
q-23 -58 -70 -85t-103 -27zM225 17q46 0 78 17.5t52 46t29 64.5t9 74v27h-56q-39 0 -81 -4t-77 -17t-57.5 -37.5t-22.5 -64.5q0 -30 12 -50t30 -32.5t40.5 -18t43.5 -5.5zM382 564h-36l-91 125l-91 -125h-36l105 144h44z" />
    <glyph glyph-name="atilde" unicode="&#xe3;" horiz-adv-x="519" 
d="M219 -13q-28 0 -55.5 7.5t-50 24t-36.5 42t-14 61.5q0 50 25 80t64 46.5t85.5 21.5t89.5 5h66v30q0 72 -38 106t-103 34q-42 0 -77.5 -15t-62.5 -40l-20 26q31 28 73.5 44t88.5 16q78 0 126 -41t48 -128v-203q0 -26 2 -55.5t6 -48.5h-34q-3 19 -5 49t-2 50h-3
q-23 -58 -70 -85t-103 -27zM225 17q46 0 78 17.5t52 46t29 64.5t9 74v27h-56q-39 0 -81 -4t-77 -17t-57.5 -37.5t-22.5 -64.5q0 -30 12 -50t30 -32.5t40.5 -18t43.5 -5.5zM124 587q5 37 22 59t45 22q17 0 32 -6t35 -18q24 -14 36.5 -19t24.5 -5q20 0 29.5 13t13.5 36h25
q-5 -37 -22 -58t-46 -21q-16 0 -30.5 5.5t-35.5 18.5q-23 14 -36 19t-26 5q-19 0 -28.5 -14t-14.5 -37h-24z" />
    <glyph glyph-name="adieresis" unicode="&#xe4;" horiz-adv-x="519" 
d="M219 -13q-28 0 -55.5 7.5t-50 24t-36.5 42t-14 61.5q0 50 25 80t64 46.5t85.5 21.5t89.5 5h66v30q0 72 -38 106t-103 34q-42 0 -77.5 -15t-62.5 -40l-20 26q31 28 73.5 44t88.5 16q78 0 126 -41t48 -128v-203q0 -26 2 -55.5t6 -48.5h-34q-3 19 -5 49t-2 50h-3
q-23 -58 -70 -85t-103 -27zM225 17q46 0 78 17.5t52 46t29 64.5t9 74v27h-56q-39 0 -81 -4t-77 -17t-57.5 -37.5t-22.5 -64.5q0 -30 12 -50t30 -32.5t40.5 -18t43.5 -5.5zM141 655q0 14 9.5 23.5t22.5 9.5q14 0 23 -9.5t9 -23.5t-9.5 -23.5t-22.5 -9.5t-22.5 9.5t-9.5 23.5z
M307 655q0 14 9 23.5t23 9.5q13 0 22.5 -9.5t9.5 -23.5t-9.5 -23.5t-22.5 -9.5q-14 0 -23 9.5t-9 23.5z" />
    <glyph glyph-name="aring" unicode="&#xe5;" horiz-adv-x="519" 
d="M219 -13q-28 0 -55.5 7.5t-50 24t-36.5 42t-14 61.5q0 50 25 80t64 46.5t85.5 21.5t89.5 5h66v30q0 72 -38 106t-103 34q-42 0 -77.5 -15t-62.5 -40l-20 26q31 28 73.5 44t88.5 16q78 0 126 -41t48 -128v-203q0 -26 2 -55.5t6 -48.5h-34q-3 19 -5 49t-2 50h-3
q-23 -58 -70 -85t-103 -27zM225 17q46 0 78 17.5t52 46t29 64.5t9 74v27h-56q-39 0 -81 -4t-77 -17t-57.5 -37.5t-22.5 -64.5q0 -30 12 -50t30 -32.5t40.5 -18t43.5 -5.5zM352 650q0 -20 -7.5 -37.5t-21 -30.5t-31 -20t-36.5 -7q-20 0 -37 7t-30.5 20t-21 30.5t-7.5 37.5
t7.5 37.5t21 30t30.5 20t37 7.5q19 0 36.5 -7.5t31 -20t21 -30t7.5 -37.5zM328 650q0 30 -21 51t-51 21t-51 -21t-21 -51t21 -51t51 -21t51 21t21 51z" />
    <glyph glyph-name="ae" unicode="&#xe6;" horiz-adv-x="876" 
d="M224 -13q-29 0 -58 7t-52 22.5t-37 40t-14 59.5q0 45 24.5 73.5t63 44t85.5 21t92 5.5h71v37q0 70 -37 109t-107 39q-42 0 -78.5 -15t-65.5 -40l-20 25q32 29 76.5 45t90.5 16q76 0 117 -35t50 -89q26 56 74.5 90t110.5 34q51 0 90 -19t64.5 -50t38.5 -71.5t13 -83.5v-23
h-383q0 -39 11.5 -76.5t35 -67t58 -48t80.5 -18.5q50 0 90 22t66 60l25 -21q-69 -93 -181 -93q-71 0 -123 38t-75 104q-14 -63 -63 -102.5t-133 -39.5zM228 17q48 0 80.5 14.5t52.5 38t29 54.5t9 64v41h-58q-44 0 -87 -3.5t-77.5 -15.5t-55.5 -34.5t-21 -59.5q0 -29 12 -48
t30.5 -30.5t41 -16t44.5 -4.5zM780 260q-1 41 -13.5 75t-34.5 58.5t-53 38t-70 13.5q-44 0 -76.5 -19t-54 -47.5t-33 -60.5t-11.5 -58h346z" />
    <glyph glyph-name="ccedilla" unicode="&#xe7;" horiz-adv-x="486" 
d="M429 387q-23 27 -57.5 42.5t-72.5 15.5q-46 0 -83 -17t-63.5 -46.5t-40.5 -68.5t-14 -82q0 -44 14 -82.5t40.5 -67.5t63.5 -45.5t83 -16.5q41 0 75.5 14t61.5 40l22 -22q-30 -32 -67.5 -47t-82.5 -17l-46 -70q22 7 48 7q15 0 30 -3.5t27.5 -12t20 -21.5t7.5 -32
q0 -24 -11 -40t-28 -25.5t-37 -13t-38 -3.5q-19 0 -44 5t-47 15l8 23q19 -9 41.5 -13t40.5 -4q13 0 27.5 2.5t26.5 8.5t20 17t8 28q0 28 -21 37.5t-45 9.5q-13 0 -31.5 -3.5t-29.5 -9.5l-13 11l58 88q-49 3 -89.5 22t-69.5 51.5t-45 75.5t-16 94q0 53 17.5 98t49.5 77.5
t75.5 51t96.5 18.5q46 0 86 -17t69 -49z" />
    <glyph glyph-name="egrave" unicode="&#xe8;" horiz-adv-x="561" 
d="M465 259q-1 41 -14.5 75.5t-37 59t-56.5 38t-73 13.5q-47 0 -81.5 -19t-57.5 -47t-34.5 -60.5t-12.5 -59.5h367zM293 -13q-51 0 -94 18.5t-74 51.5t-48 78.5t-17 99.5q0 52 17.5 96.5t47.5 76.5t71 50t88 18q54 0 94.5 -19t68 -50t41 -72t13.5 -84q0 -5 -0.5 -11
t-0.5 -11h-403q0 -40 13 -78t37.5 -67.5t61 -47.5t84.5 -18q54 0 94 22t71 60l25 -21q-72 -92 -190 -92zM174 708h47l102 -144h-32z" />
    <glyph glyph-name="eacute" unicode="&#xe9;" horiz-adv-x="561" 
d="M465 259q-1 41 -14.5 75.5t-37 59t-56.5 38t-73 13.5q-47 0 -81.5 -19t-57.5 -47t-34.5 -60.5t-12.5 -59.5h367zM293 -13q-51 0 -94 18.5t-74 51.5t-48 78.5t-17 99.5q0 52 17.5 96.5t47.5 76.5t71 50t88 18q54 0 94.5 -19t68 -50t41 -72t13.5 -84q0 -5 -0.5 -11
t-0.5 -11h-403q0 -40 13 -78t37.5 -67.5t61 -47.5t84.5 -18q54 0 94 22t71 60l25 -21q-72 -92 -190 -92zM287 564h-32l102 144h47z" />
    <glyph glyph-name="ecircumflex" unicode="&#xea;" horiz-adv-x="561" 
d="M465 259q-1 41 -14.5 75.5t-37 59t-56.5 38t-73 13.5q-47 0 -81.5 -19t-57.5 -47t-34.5 -60.5t-12.5 -59.5h367zM293 -13q-51 0 -94 18.5t-74 51.5t-48 78.5t-17 99.5q0 52 17.5 96.5t47.5 76.5t71 50t88 18q54 0 94.5 -19t68 -50t41 -72t13.5 -84q0 -5 -0.5 -11
t-0.5 -11h-403q0 -40 13 -78t37.5 -67.5t61 -47.5t84.5 -18q54 0 94 22t71 60l25 -21q-72 -92 -190 -92zM417 564h-36l-91 125l-91 -125h-36l105 144h44z" />
    <glyph glyph-name="edieresis" unicode="&#xeb;" horiz-adv-x="561" 
d="M465 259q-1 41 -14.5 75.5t-37 59t-56.5 38t-73 13.5q-47 0 -81.5 -19t-57.5 -47t-34.5 -60.5t-12.5 -59.5h367zM293 -13q-51 0 -94 18.5t-74 51.5t-48 78.5t-17 99.5q0 52 17.5 96.5t47.5 76.5t71 50t88 18q54 0 94.5 -19t68 -50t41 -72t13.5 -84q0 -5 -0.5 -11
t-0.5 -11h-403q0 -40 13 -78t37.5 -67.5t61 -47.5t84.5 -18q54 0 94 22t71 60l25 -21q-72 -92 -190 -92zM173 655q0 14 9.5 23.5t22.5 9.5q14 0 23 -9.5t9 -23.5t-9.5 -23.5t-22.5 -9.5t-22.5 9.5t-9.5 23.5zM339 655q0 14 9 23.5t23 9.5q13 0 22.5 -9.5t9.5 -23.5
t-9.5 -23.5t-22.5 -9.5q-14 0 -23 9.5t-9 23.5z" />
    <glyph glyph-name="igrave" unicode="&#xec;" horiz-adv-x="233" 
d="M135 0h-36v462h36v-462zM-13 708h47l102 -144h-32z" />
    <glyph glyph-name="iacute" unicode="&#xed;" horiz-adv-x="233" 
d="M135 0h-36v462h36v-462zM130 564h-32l102 144h47z" />
    <glyph glyph-name="icircumflex" unicode="&#xee;" horiz-adv-x="233" 
d="M135 0h-36v462h36v-462zM246 564h-36l-91 125l-91 -125h-36l105 144h44z" />
    <glyph glyph-name="idieresis" unicode="&#xef;" horiz-adv-x="233" 
d="M135 0h-36v462h36v-462zM4 655q0 14 9.5 23.5t22.5 9.5q14 0 23 -9.5t9 -23.5t-9.5 -23.5t-22.5 -9.5t-22.5 9.5t-9.5 23.5zM170 655q0 14 9 23.5t23 9.5q13 0 22.5 -9.5t9.5 -23.5t-9.5 -23.5t-22.5 -9.5q-14 0 -23 9.5t-9 23.5z" />
    <glyph glyph-name="eth" unicode="&#xf0;" horiz-adv-x="607" 
d="M95 232q0 -44 14 -83t40.5 -68t64.5 -46t86 -17t86 17t64.5 46t41 68t14.5 83t-14.5 83t-41 67.5t-64.5 45t-86 16.5t-86 -16.5t-64.5 -45t-40.5 -67.5t-14 -83zM342 666q28 -28 63 -72.5t66 -100.5t52 -120.5t21 -131.5q0 -52 -16.5 -98.5t-47.5 -81t-76.5 -54.5
t-103.5 -20q-53 0 -97.5 18.5t-76.5 51t-50 77.5t-18 98t18 98t50 77.5t76.5 50.5t97.5 18q50 0 92.5 -17t78.5 -54l5 2q-15 34 -34.5 68t-42 66t-45.5 59.5t-45 47.5l-112 -60l-19 21l110 60q-28 26 -52.5 45.5t-45.5 33.5l30 20q26 -17 50.5 -38t48.5 -44l104 57l23 -20z
" />
    <glyph glyph-name="ntilde" unicode="&#xf1;" horiz-adv-x="575" 
d="M131 462q1 -9 1.5 -23t1 -29l1 -30t0.5 -26h2q10 28 28 51t40.5 38.5t49.5 24t55 8.5q47 0 79.5 -16t53 -43t30 -62.5t9.5 -73.5v-281h-36v271q0 31 -6.5 62t-22 56t-42.5 40.5t-68 15.5q-35 0 -65.5 -14t-54 -41t-37 -66.5t-13.5 -90.5v-233h-37v350v25.5t-0.5 31
t-1.5 30.5t-2 25h35zM160 587q5 37 22 59t45 22q17 0 32 -6t35 -18q24 -14 36.5 -19t24.5 -5q20 0 29.5 13t13.5 36h25q-5 -37 -22 -58t-46 -21q-16 0 -30.5 5.5t-35.5 18.5q-23 14 -36 19t-26 5q-19 0 -28.5 -14t-14.5 -37h-24z" />
    <glyph glyph-name="ograve" unicode="&#xf2;" horiz-adv-x="607" 
d="M547 232q0 -53 -18 -98t-50.5 -77.5t-77 -51t-98.5 -18.5q-53 0 -98 18.5t-77 51t-50 77.5t-18 98t18 98t50 77.5t77 50.5t98 18q54 0 98.5 -18t77 -50.5t50.5 -77.5t18 -98zM509 232q0 44 -14.5 83t-41 68t-64.5 45.5t-86 16.5t-86 -16.5t-64.5 -45.5t-40.5 -68t-14 -83
t14 -83t40.5 -68t64.5 -46t86 -17t86 17t64.5 46t41 68t14.5 83zM194 708h47l102 -144h-32z" />
    <glyph glyph-name="oacute" unicode="&#xf3;" horiz-adv-x="607" 
d="M547 232q0 -53 -18 -98t-50.5 -77.5t-77 -51t-98.5 -18.5q-53 0 -98 18.5t-77 51t-50 77.5t-18 98t18 98t50 77.5t77 50.5t98 18q54 0 98.5 -18t77 -50.5t50.5 -77.5t18 -98zM509 232q0 44 -14.5 83t-41 68t-64.5 45.5t-86 16.5t-86 -16.5t-64.5 -45.5t-40.5 -68t-14 -83
t14 -83t40.5 -68t64.5 -46t86 -17t86 17t64.5 46t41 68t14.5 83zM298 564h-32l102 144h47z" />
    <glyph glyph-name="ocircumflex" unicode="&#xf4;" horiz-adv-x="607" 
d="M547 232q0 -53 -18 -98t-50.5 -77.5t-77 -51t-98.5 -18.5q-53 0 -98 18.5t-77 51t-50 77.5t-18 98t18 98t50 77.5t77 50.5t98 18q54 0 98.5 -18t77 -50.5t50.5 -77.5t18 -98zM509 232q0 44 -14.5 83t-41 68t-64.5 45.5t-86 16.5t-86 -16.5t-64.5 -45.5t-40.5 -68t-14 -83
t14 -83t40.5 -68t64.5 -46t86 -17t86 17t64.5 46t41 68t14.5 83zM431 564h-36l-91 125l-91 -125h-36l105 144h44z" />
    <glyph glyph-name="otilde" unicode="&#xf5;" horiz-adv-x="607" 
d="M547 232q0 -53 -18 -98t-50.5 -77.5t-77 -51t-98.5 -18.5q-53 0 -98 18.5t-77 51t-50 77.5t-18 98t18 98t50 77.5t77 50.5t98 18q54 0 98.5 -18t77 -50.5t50.5 -77.5t18 -98zM509 232q0 44 -14.5 83t-41 68t-64.5 45.5t-86 16.5t-86 -16.5t-64.5 -45.5t-40.5 -68t-14 -83
t14 -83t40.5 -68t64.5 -46t86 -17t86 17t64.5 46t41 68t14.5 83zM173 587q5 37 22 59t45 22q17 0 32 -6t35 -18q24 -14 36.5 -19t24.5 -5q20 0 29.5 13t13.5 36h25q-5 -37 -22 -58t-46 -21q-16 0 -30.5 5.5t-35.5 18.5q-23 14 -36 19t-26 5q-19 0 -28.5 -14t-14.5 -37h-24z
" />
    <glyph glyph-name="odieresis" unicode="&#xf6;" horiz-adv-x="607" 
d="M547 232q0 -53 -18 -98t-50.5 -77.5t-77 -51t-98.5 -18.5q-53 0 -98 18.5t-77 51t-50 77.5t-18 98t18 98t50 77.5t77 50.5t98 18q54 0 98.5 -18t77 -50.5t50.5 -77.5t18 -98zM509 232q0 44 -14.5 83t-41 68t-64.5 45.5t-86 16.5t-86 -16.5t-64.5 -45.5t-40.5 -68t-14 -83
t14 -83t40.5 -68t64.5 -46t86 -17t86 17t64.5 46t41 68t14.5 83zM190 655q0 14 9.5 23.5t22.5 9.5q14 0 23 -9.5t9 -23.5t-9.5 -23.5t-22.5 -9.5t-22.5 9.5t-9.5 23.5zM356 655q0 14 9 23.5t23 9.5q13 0 22.5 -9.5t9.5 -23.5t-9.5 -23.5t-22.5 -9.5q-14 0 -23 9.5t-9 23.5z
" />
    <glyph glyph-name="divide" unicode="&#xf7;" horiz-adv-x="666" 
d="M578 287h-489v32h489v-32zM375 468q0 -17 -12.5 -29.5t-29.5 -12.5t-29 12.5t-12 29.5q0 18 12 30.5t29 12.5t29.5 -12.5t12.5 -30.5zM375 138q0 -18 -12.5 -30.5t-29.5 -12.5t-29 12.5t-12 30.5q0 17 11.5 29.5t29.5 12.5q17 0 29.5 -12.5t12.5 -29.5z" />
    <glyph glyph-name="oslash" unicode="&#xf8;" horiz-adv-x="607" 
d="M50 2l67 67q-27 32 -42 73t-15 90q0 53 18 98t50 77.5t76.5 50.5t98.5 18q48 0 89 -15t73 -41l61 61l20 -19l-62 -62q29 -31 46 -73.5t17 -94.5q0 -53 -18 -98t-50.5 -77.5t-77 -51t-98.5 -18.5q-51 0 -93.5 16.5t-73.5 46.5l-66 -67zM442 396q-26 23 -61 36.5t-78 13.5
q-48 0 -86 -17t-65 -46t-41 -68t-14 -83q0 -40 11 -75.5t33 -63.5zM302 17q48 0 86.5 17t65.5 46t41.5 68t14.5 84q0 42 -12.5 79t-37.5 65l-301 -303q26 -26 62 -41t81 -15z" />
    <glyph glyph-name="ugrave" unicode="&#xf9;" horiz-adv-x="575" 
d="M442 0q-1 10 -1.5 24t-1 29t-1 29.5t-0.5 25.5h-2q-10 -29 -28 -51t-41.5 -38t-50.5 -24t-55 -8q-47 0 -79 16t-52 43t-29 62.5t-9 73.5v280h36v-270q0 -31 6 -62.5t21.5 -56.5t42.5 -40.5t68 -15.5q35 0 66 14t54.5 42t37 68.5t13.5 94.5v226h36v-350q0 -11 0.5 -25.5
t1 -30.5t1.5 -31t2 -25h-36zM166 708h47l102 -144h-32z" />
    <glyph glyph-name="uacute" unicode="&#xfa;" horiz-adv-x="575" 
d="M442 0q-1 10 -1.5 24t-1 29t-1 29.5t-0.5 25.5h-2q-10 -29 -28 -51t-41.5 -38t-50.5 -24t-55 -8q-47 0 -79 16t-52 43t-29 62.5t-9 73.5v280h36v-270q0 -31 6 -62.5t21.5 -56.5t42.5 -40.5t68 -15.5q35 0 66 14t54.5 42t37 68.5t13.5 94.5v226h36v-350q0 -11 0.5 -25.5
t1 -30.5t1.5 -31t2 -25h-36zM274 564h-32l102 144h47z" />
    <glyph glyph-name="ucircumflex" unicode="&#xfb;" horiz-adv-x="575" 
d="M442 0q-1 10 -1.5 24t-1 29t-1 29.5t-0.5 25.5h-2q-10 -29 -28 -51t-41.5 -38t-50.5 -24t-55 -8q-47 0 -79 16t-52 43t-29 62.5t-9 73.5v280h36v-270q0 -31 6 -62.5t21.5 -56.5t42.5 -40.5t68 -15.5q35 0 66 14t54.5 42t37 68.5t13.5 94.5v226h36v-350q0 -11 0.5 -25.5
t1 -30.5t1.5 -31t2 -25h-36zM409 564h-36l-91 125l-91 -125h-36l105 144h44z" />
    <glyph glyph-name="udieresis" unicode="&#xfc;" horiz-adv-x="575" 
d="M442 0q-1 10 -1.5 24t-1 29t-1 29.5t-0.5 25.5h-2q-10 -29 -28 -51t-41.5 -38t-50.5 -24t-55 -8q-47 0 -79 16t-52 43t-29 62.5t-9 73.5v280h36v-270q0 -31 6 -62.5t21.5 -56.5t42.5 -40.5t68 -15.5q35 0 66 14t54.5 42t37 68.5t13.5 94.5v226h36v-350q0 -11 0.5 -25.5
t1 -30.5t1.5 -31t2 -25h-36zM167 655q0 14 9.5 23.5t22.5 9.5q14 0 23 -9.5t9 -23.5t-9.5 -23.5t-22.5 -9.5t-22.5 9.5t-9.5 23.5zM333 655q0 14 9 23.5t23 9.5q13 0 22.5 -9.5t9.5 -23.5t-9.5 -23.5t-22.5 -9.5q-14 0 -23 9.5t-9 23.5z" />
    <glyph glyph-name="yacute" unicode="&#xfd;" horiz-adv-x="447" 
d="M73 -241q-11 0 -24 1.5t-23 4.5l6 33q19 -7 41 -7q20 0 34.5 7.5t26 19.5t19.5 27.5t14 32.5l42 113l-187 471h40l166 -431l158 431h39l-230 -604q-18 -47 -46 -73t-76 -26zM230 564h-32l102 144h47z" />
    <glyph glyph-name="thorn" unicode="&#xfe;" horiz-adv-x="628" 
d="M334 -13q-61 0 -115.5 31t-81.5 92h-2v-350h-36v996h36v-405h2q30 62 83 93.5t114 31.5q52 0 95 -18.5t74 -51t48 -77.5t17 -98t-17.5 -97.5t-48.5 -77t-74 -51t-94 -18.5zM531 231q0 43 -14 82t-40 68t-62.5 46t-82.5 17q-44 0 -81 -16.5t-63.5 -45.5t-41 -68t-14.5 -83
t14.5 -82.5t41 -67.5t63.5 -46t81 -17q46 0 82.5 17t62.5 46t40 67.5t14 82.5z" />
    <glyph glyph-name="ydieresis" unicode="&#xff;" horiz-adv-x="447" 
d="M73 -241q-11 0 -24 1.5t-23 4.5l6 33q19 -7 41 -7q20 0 34.5 7.5t26 19.5t19.5 27.5t14 32.5l42 113l-187 471h40l166 -431l158 431h39l-230 -604q-18 -47 -46 -73t-76 -26zM113 655q0 14 9.5 23.5t22.5 9.5q14 0 23 -9.5t9 -23.5t-9.5 -23.5t-22.5 -9.5t-22.5 9.5
t-9.5 23.5zM279 655q0 14 9 23.5t23 9.5q13 0 22.5 -9.5t9.5 -23.5t-9.5 -23.5t-22.5 -9.5q-14 0 -23 9.5t-9 23.5z" />
    <glyph glyph-name="dotlessi" unicode="&#x131;" horiz-adv-x="233" 
d="M135 0h-36v462h36v-462z" />
    <glyph glyph-name="OE" unicode="&#x152;" horiz-adv-x="982" 
d="M914 708v-34h-346v-290h324v-33h-324v-317h361v-34h-472q-78 0 -147.5 21t-122.5 64.5t-84 110.5t-31 158t31 157.5t84 110t122.5 65t147.5 21.5h457zM466 674q-79 0 -144 -21t-112 -61.5t-73 -100t-26 -137.5t26 -137.5t73 -100t112 -61.5t144 -21h65v640h-65z" />
    <glyph glyph-name="oe" unicode="&#x153;" horiz-adv-x="1006" 
d="M303 -13q-54 0 -98.5 18.5t-76.5 51t-50 77.5t-18 98t18 98t50 77.5t76.5 50.5t98.5 18q80 0 138 -39.5t84 -105.5q25 66 79 105.5t126 39.5q54 0 94.5 -19t67.5 -50t40.5 -71.5t13.5 -83.5v-23h-403q0 -40 13 -78t37.5 -67.5t61 -47.5t84.5 -18q53 0 94 22.5t69 60.5
l27 -22q-72 -92 -191 -92q-76 0 -131.5 39.5t-80.5 107.5q-26 -68 -84 -107.5t-139 -39.5zM509 232q0 44 -14.5 83t-41 68t-64.5 45.5t-86 16.5t-86 -16.5t-64.5 -45.5t-41 -68t-14.5 -83t14.5 -83t41 -68t64.5 -46t86 -17t86 17t64.5 46t41 68t14.5 83zM910 259
q-1 41 -14 75.5t-36.5 59t-56.5 38t-74 13.5q-47 0 -81 -19t-57 -47t-34.5 -60.5t-12.5 -59.5h366z" />
    <glyph glyph-name="Scaron" unicode="&#x160;" horiz-adv-x="568" 
d="M458 622q-26 34 -67 53t-92 19q-33 0 -65.5 -9.5t-58.5 -28.5t-42 -48t-16 -68q0 -55 28.5 -86.5t71 -52t92 -35.5t92 -37t71 -57.5t28.5 -96.5q0 -48 -18 -84.5t-48.5 -60.5t-70.5 -36.5t-83 -12.5q-66 0 -120.5 23t-91.5 68l25 25q38 -40 85 -61t102 -21q35 0 68 10.5
t58.5 30.5t40.5 49.5t15 67.5q0 41 -16.5 68t-43.5 46t-61 32.5t-70 26t-70 27t-61 36t-43.5 53t-16.5 77.5t18.5 81.5t49 59t70.5 35.5t82 12q60 0 108.5 -21.5t77.5 -59.5zM317 764h-44l-105 144h36l91 -125l91 125h36z" />
    <glyph glyph-name="scaron" unicode="&#x161;" horiz-adv-x="424" 
d="M334 384q-41 61 -120 61q-18 0 -38 -5t-36.5 -16t-27 -28.5t-10.5 -43.5q0 -41 29.5 -61.5t94.5 -36.5q31 -8 58 -18t47 -25t31 -36t11 -51q0 -34 -13 -59.5t-35 -42.5t-50.5 -25.5t-59.5 -8.5q-52 0 -96 20t-73 61l29 21q23 -33 59 -52t81 -19q22 0 44 6t39 19t28 32
t11 45q0 28 -13 46t-33.5 29.5t-46.5 19t-53 14.5q-59 15 -92 42.5t-33 79.5q0 31 13 54.5t34 39t47.5 23t54.5 7.5q49 0 86 -18.5t60 -53.5zM241 564h-44l-105 144h36l91 -125l91 125h36z" />
    <glyph glyph-name="Ydieresis" unicode="&#x178;" horiz-adv-x="558" 
d="M298 0h-38v308l-250 400h46l224 -366l224 366h43l-249 -400v-308zM166 855q0 14 9.5 23.5t22.5 9.5q14 0 23 -9.5t9 -23.5t-9.5 -23.5t-22.5 -9.5t-22.5 9.5t-9.5 23.5zM332 855q0 14 9 23.5t23 9.5q13 0 22.5 -9.5t9.5 -23.5t-9.5 -23.5t-22.5 -9.5q-14 0 -23 9.5
t-9 23.5z" />
    <glyph glyph-name="Zcaron" unicode="&#x17d;" horiz-adv-x="587" 
d="M538 669l-450 -635h461v-34h-502v37l452 637h-440v34h479v-39zM320 764h-44l-105 144h36l91 -125l91 125h36z" />
    <glyph glyph-name="zcaron" unicode="&#x17e;" horiz-adv-x="439" 
d="M383 432l-296 -401h307v-31h-351v29l299 403h-283v30h324v-30zM246 564h-44l-105 144h36l91 -125l91 125h36z" />
    <glyph glyph-name="florin" unicode="&#x192;" 
d="M412 382h-121l-72 -392q-5 -27 -14 -51t-24 -42t-37 -28.5t-55 -10.5q-17 0 -33.5 3t-30.5 11l15 30q24 -12 50 -12q25 0 42 9.5t28 26t17 39t11 47.5l66 370h-110v29h116l29 164q5 28 14 54t24.5 46.5t39.5 32.5t58 12q47 0 75 -22l-18 -27q-11 8 -26 12.5t-29 4.5
q-26 0 -43.5 -10.5t-29.5 -27t-18.5 -36.5t-9.5 -39l-29 -164h115v-29z" />
    <glyph glyph-name="circumflex" unicode="&#x2c6;" horiz-adv-x="240" 
d="M247 564h-36l-91 125l-91 -125h-36l105 144h44z" />
    <glyph glyph-name="caron" unicode="&#x2c7;" horiz-adv-x="240" 
d="M142 564h-44l-105 144h36l91 -125l91 125h36z" />
    <glyph glyph-name="ring" unicode="&#x2da;" horiz-adv-x="240" 
d="M216 650q0 -20 -7.5 -37.5t-21 -30.5t-31 -20t-36.5 -7q-20 0 -37 7t-30.5 20t-21 30.5t-7.5 37.5t7.5 37.5t21 30t30.5 20t37 7.5q19 0 36.5 -7.5t31 -20t21 -30t7.5 -37.5zM192 650q0 30 -21 51t-51 21t-51 -21t-21 -51t21 -51t51 -21t51 21t21 51z" />
    <glyph glyph-name="tilde" unicode="&#x2dc;" horiz-adv-x="240" 
d="M-11 587q5 37 22 59t45 22q17 0 32 -6t35 -18q24 -14 36.5 -19t24.5 -5q20 0 29.5 13t13.5 36h25q-5 -37 -22 -58t-46 -21q-16 0 -30.5 5.5t-35.5 18.5q-23 14 -36 19t-26 5q-19 0 -28.5 -14t-14.5 -37h-24z" />
    <glyph glyph-name="endash" unicode="&#x2013;" horiz-adv-x="400" 
d="M370 235h-340v31h340v-31z" />
    <glyph glyph-name="emdash" unicode="&#x2014;" horiz-adv-x="600" 
d="M570 235h-540v31h540v-31z" />
    <glyph glyph-name="quoteleft" unicode="&#x2018;" horiz-adv-x="221" 
d="M130 708h29l-59 -230h-39z" />
    <glyph glyph-name="quoteright" unicode="&#x2019;" horiz-adv-x="221" 
d="M91 478h-30l60 230h38z" />
    <glyph glyph-name="quotesinglbase" unicode="&#x201a;" horiz-adv-x="221" 
d="M91 -139h-30l60 231h38z" />
    <glyph glyph-name="quotedblleft" unicode="&#x201c;" horiz-adv-x="361" 
d="M131 708h30l-61 -230h-39zM271 708h29l-59 -230h-39z" />
    <glyph glyph-name="quotedblright" unicode="&#x201d;" horiz-adv-x="361" 
d="M262 708h38l-70 -230h-29zM121 708h38l-68 -230h-30z" />
    <glyph glyph-name="quotedblbase" unicode="&#x201e;" horiz-adv-x="361" 
d="M262 92h38l-70 -231h-29zM121 92h38l-68 -231h-30z" />
    <glyph glyph-name="dagger" unicode="&#x2020;" horiz-adv-x="531" 
d="M284 502h197v-32h-197v-596h-36v596h-198v32h198v206h36v-206z" />
    <glyph glyph-name="daggerdbl" unicode="&#x2021;" horiz-adv-x="531" 
d="M284 506h194v-33h-194v-364h194v-33h-194v-202h-36v202h-195v33h195v364h-195v33h195v202h36v-202z" />
    <glyph glyph-name="bullet" unicode="&#x2022;" horiz-adv-x="500" 
d="M73 354q0 37 14 69t38 56t56 38t69 14t69 -14t56 -38t38 -56t14 -69t-14 -69t-38 -56t-56 -38t-69 -14t-69 14t-56 38t-38 56t-14 69z" />
    <glyph glyph-name="ellipsis" unicode="&#x2026;" horiz-adv-x="1000" 
d="M198 29q0 -15 -9.5 -25t-22.5 -10q-14 0 -23.5 10t-9.5 25q0 14 9.5 24t23.5 10t23 -10t9 -24zM533 29q0 -15 -10 -25t-23 -10q-14 0 -23.5 10t-9.5 25q0 14 9.5 24t23.5 10t23.5 -10t9.5 -24zM867 29q0 -15 -9.5 -25t-23.5 -10t-23 10t-9 25q0 14 9 24t23 10t23.5 -10
t9.5 -24z" />
    <glyph glyph-name="perthousand" unicode="&#x2030;" horiz-adv-x="1000" 
d="M475 -7q-30 0 -57 11.5t-47 31.5t-31.5 47t-11.5 58t11.5 58.5t31.5 48t47 32t57 11.5q31 0 58 -11.5t47 -32t32 -48t12 -58.5t-12 -58t-32 -47t-47 -31.5t-58 -11.5zM475 23q24 0 45.5 9t37.5 25t25 37.5t9 46.5t-9 47t-25 38.5t-37.5 25.5t-45.5 9t-45 -9t-36 -25.5
t-24 -38.5t-9 -47t9 -46.5t24 -37.5t36 -25t45 -9zM820 -7q-31 0 -58 11.5t-47 31.5t-31.5 47t-11.5 58t11.5 58.5t31.5 48t47 32t58 11.5q30 0 57 -11.5t47.5 -32t32 -48t11.5 -58.5t-11.5 -58t-32 -47t-47.5 -31.5t-57 -11.5zM820 23q24 0 45.5 9t37 25t24.5 37.5t9 46.5
t-9 47t-24.5 38.5t-37 25.5t-45.5 9t-45 -9t-36.5 -25.5t-24.5 -38.5t-9 -47t9 -46.5t24.5 -37.5t36.5 -25t45 -9zM112 -28l-27 16l443 749l27 -16zM185 420q-31 0 -58 11.5t-47 31.5t-31.5 47t-11.5 58t11.5 58.5t31.5 48t47 32t58 11.5q30 0 57 -11.5t47.5 -32t32 -48
t11.5 -58.5t-11.5 -58t-32 -47t-47.5 -31.5t-57 -11.5zM185 450q24 0 45.5 9t37 25t24.5 37.5t9 46.5t-9 47t-24.5 38.5t-37 25.5t-45.5 9t-45 -9t-36.5 -25.5t-24.5 -38.5t-9 -47t9 -46.5t24.5 -37.5t36.5 -25t45 -9z" />
    <glyph glyph-name="guilsinglleft" unicode="&#x2039;" horiz-adv-x="315" 
d="M229 56l-26 -19l-128 201l127 200l26 -18l-114 -182z" />
    <glyph glyph-name="guilsinglright" unicode="&#x203a;" horiz-adv-x="315" 
d="M86 420l26 19l128 -201l-127 -200l-26 18l114 182z" />
    <glyph glyph-name="Euro" unicode="&#x20ac;" 
d="M509 662q-28 16 -60 24t-73 8q-47 0 -87 -16t-72 -47t-54.5 -76t-34.5 -103h327l-10 -30h-321q-2 -15 -3.5 -35.5t-1.5 -38.5q0 -13 0.5 -31t2.5 -31h282l-10 -30h-269q9 -56 31 -100.5t55 -76t74 -48.5t88 -17q87 0 146 44l16 -30q-64 -47 -169 -47q-59 0 -106.5 22
t-83 59.5t-58 87.5t-31.5 106h-69l12 30h53q-2 12 -2.5 30t-0.5 32q0 17 1 38t3 36h-64l10 30h59q13 67 40.5 118.5t65 86.5t84 52.5t99.5 17.5q41 0 79 -8.5t66 -23.5l-14 -33v0z" />
    <glyph glyph-name="trademark" unicode="&#x2122;" horiz-adv-x="1000" 
d="M393 678h-134v-382h-34v382h-134v30h302v-30zM902 296h-33v377h-2l-160 -377h-21l-158 377h-2v-377h-33v412h54l150 -358l151 358h54v-412z" />
    <glyph glyph-name="grave.cap" horiz-adv-x="240" 
d="M11 908h47l102 -144h-32z" />
    <glyph glyph-name="acute.cap" horiz-adv-x="240" 
d="M112 764h-32l102 144h47z" />
    <glyph glyph-name="circumflex.cap" horiz-adv-x="240" 
d="M247 764h-36l-91 125l-91 -125h-36l105 144h44z" />
    <glyph glyph-name="caron.cap" horiz-adv-x="240" 
d="M142 764h-44l-105 144h36l91 -125l91 125h36z" />
    <glyph glyph-name="tilde.cap" horiz-adv-x="240" 
d="M-11 787q5 37 22 59t45 22q17 0 32 -6t35 -18q24 -14 36.5 -19t24.5 -5q20 0 29.5 13t13.5 36h25q-5 -37 -22 -58t-46 -21q-16 0 -30.5 5.5t-35.5 18.5q-23 14 -36 19t-26 5q-19 0 -28.5 -14t-14.5 -37h-24z" />
    <glyph glyph-name="dieresis.cap" horiz-adv-x="240" 
d="M5 855q0 14 9.5 23.5t22.5 9.5q14 0 23 -9.5t9 -23.5t-9.5 -23.5t-22.5 -9.5t-22.5 9.5t-9.5 23.5zM171 855q0 14 9 23.5t23 9.5q13 0 22.5 -9.5t9.5 -23.5t-9.5 -23.5t-22.5 -9.5q-14 0 -23 9.5t-9 23.5z" />
    <glyph glyph-name="ring.cap" horiz-adv-x="240" 
d="M216 850q0 -20 -7.5 -37.5t-21 -30.5t-31 -20t-36.5 -7q-20 0 -37 7t-30.5 20t-21 30.5t-7.5 37.5t7.5 37.5t21 30t30.5 20t37 7.5q19 0 36.5 -7.5t31 -20t21 -30t7.5 -37.5zM192 850q0 30 -21 51t-51 21t-51 -21t-21 -51t21 -51t51 -21t51 21t21 51z" />
  </font>
</defs>
</svg>
