<?xml version="1.0" standalone="no"?>
<!DOCTYPE svg PUBLIC "-//W3C//DTD SVG 1.1//EN" "http://www.w3.org/Graphics/SVG/1.1/DTD/svg11.dtd" >
<svg>
<metadata>
Created by FontForge 20110222 at Thu May 30 13:47:14 2013
 By Orthosie Webhosting
Copyright (c) 2004 - 2007 Linotype GmbH, www.linotype.com. All rights reserved. This font software may not be reproduced, modified, disclosed or transferred without the express written approval of Linotype GmbH. Avenir is a trademark of Linotype GmbH registered in the U.S. Patent and Trademark Office and may be registered in certain other jurisdictions. This typeface is original artwork of Adrian Frutiger and Akira Kobayashi. The design may be protected in certain jurisdictions.
</metadata>
<defs>
<font id="AvenirNextLTW01ItalicRegular" horiz-adv-x="580" >
  <font-face 
    font-family="AvenirNextLTW01ItalicRegular"
    font-weight="400"
    font-style="italic"
    font-stretch="normal"
    units-per-em="1000"
    panose-1="2 11 5 3 2 2 2 9 2 4"
    ascent="756"
    descent="-244"
    x-height="468"
    cap-height="708"
    bbox="-113 -250 1029 946"
    underline-thickness="50"
    underline-position="-50"
    unicode-range="U+000D-E308"
  />
<missing-glyph horiz-adv-x="0" 
 />
    <glyph glyph-name=".notdef" horiz-adv-x="0" 
 />
    <glyph glyph-name="glyph1" horiz-adv-x="0" 
 />
    <glyph glyph-name="uni000D" unicode="&#xd;" horiz-adv-x="250" 
 />
    <glyph glyph-name="space" unicode=" " horiz-adv-x="250" 
 />
    <glyph glyph-name="exclam" unicode="!" horiz-adv-x="278" 
d="M155 192h-72l91 516h72zM153 49q0 -22 -15.5 -38.5t-38.5 -16.5q-22 0 -37.5 14t-15.5 38t16.5 40t38.5 16t37 -14t15 -39z" />
    <glyph glyph-name="quotedbl" unicode="&#x22;" horiz-adv-x="400" 
d="M158 708h60l-42 -235h-60zM303 708h60l-42 -235h-60z" />
    <glyph glyph-name="numbersign" unicode="#" horiz-adv-x="556" 
d="M121 214h-102l10 60h110l51 162h-108l10 60h117l67 212h61l-67 -212h133l67 212h61l-67 -212h90l-10 -60h-99l-51 -162h95l-10 -60h-103l-68 -214h-61l68 214h-133l-68 -214h-61zM200 274h133l51 162h-133z" />
    <glyph glyph-name="dollar" unicode="$" 
d="M239 -84h-42l13 72q-59 4 -111.5 29.5t-81.5 73.5l62 39q18 -32 54.5 -55.5t86.5 -26.5l50 285q-31 11 -60 26t-52 36t-37 49.5t-14 66.5q0 42 15.5 79.5t45 65.5t72.5 45t99 20l12 71h42l-13 -72q57 -3 100 -26.5t68 -56.5l-60 -42q-15 24 -46 43t-72 21l-48 -274
q30 -12 59 -27t52.5 -36.5t38 -50t14.5 -67.5q0 -34 -12 -71t-40 -68.5t-72.5 -53t-110.5 -24.5zM263 48q33 1 60.5 13t47.5 31.5t31.5 46t11.5 56.5q0 48 -31 76.5t-74 47.5l-46 -271v0zM328 660q-28 -2 -55 -11t-48 -26t-34 -43t-13 -61q0 -48 28.5 -74t75.5 -45z" />
    <glyph glyph-name="percent" unicode="%" horiz-adv-x="833" 
d="M211 373q-33 0 -61.5 10.5t-48.5 29.5t-31.5 45t-11.5 58q0 42 14.5 79t40.5 64.5t62 44t79 16.5q34 0 62 -10.5t48 -29t31 -45t11 -57.5q0 -42 -14.5 -79.5t-40.5 -65.5t-61.5 -44t-78.5 -16zM345 573q0 41 -25 68t-70 27q-28 0 -51.5 -11.5t-41 -31.5t-27 -46.5
t-9.5 -56.5q0 -41 25 -67.5t69 -26.5q28 0 52 11.5t41.5 31.5t27 46t9.5 56zM600 -10q-33 0 -61.5 10.5t-48.5 29.5t-31.5 45t-11.5 58q0 42 14.5 79t40.5 64.5t62 44t79 16.5q34 0 62 -10.5t48 -29t31 -45t11 -57.5q0 -42 -14.5 -79.5t-40.5 -65.5t-61.5 -44t-78.5 -16z
M734 190q0 41 -25 68t-70 27q-28 0 -51.5 -11.5t-41 -31.5t-27 -46.5t-9.5 -56.5q0 -41 25 -67.5t69 -26.5q28 0 52 11.5t41.5 31.5t27 46t9.5 56zM155 -31l-45 27l582 743l44 -27z" />
    <glyph glyph-name="ampersand" unicode="&#x26;" horiz-adv-x="704" 
d="M511 576q0 -35 -15 -64t-40.5 -53.5t-60 -45t-73.5 -36.5l133 -168l125 174h83l-168 -221l130 -162h-91l-81 105q-52 -60 -106 -88.5t-120 -28.5q-45 0 -82 11t-64 33t-42 55t-15 77q0 46 19.5 83t49.5 65t66 48.5t69 34.5q-26 32 -40.5 71t-14.5 77q0 40 13 73.5
t36.5 58t56 38t71.5 13.5q71 0 116 -39t45 -111zM260 348q-31 -13 -60 -29.5t-51 -38.5t-35.5 -50t-13.5 -64q0 -56 38 -87t93 -31q54 0 96.5 26t85.5 78zM441 571q0 44 -24 70.5t-67 26.5q-50 0 -80.5 -34t-30.5 -86q0 -37 16 -71t36 -56q31 13 58.5 28.5t47.5 33.5t32 40
t12 48z" />
    <glyph glyph-name="quotesingle" unicode="'" horiz-adv-x="255" 
d="M158 708h60l-42 -235h-60z" />
    <glyph glyph-name="parenleft" unicode="(" horiz-adv-x="300" 
d="M83 167q0 -87 18 -162t51 -135l-52 -28q-38 61 -60.5 146.5t-22.5 178.5q0 83 18.5 162t50.5 152t75 137t93 117l46 -33q-46 -51 -85.5 -113t-69 -130.5t-46 -142.5t-16.5 -149z" />
    <glyph glyph-name="parenright" unicode=")" horiz-adv-x="300" 
d="M211 409q0 87 -18 162t-51 135l52 28q38 -61 60.5 -146.5t22.5 -178.5q0 -83 -18.5 -162t-50.5 -152t-75.5 -137t-92.5 -117l-46 33q46 51 85.5 113t69 130.5t46 142.5t16.5 149z" />
    <glyph glyph-name="asterisk" unicode="*" horiz-adv-x="444" 
d="M280 563l144 45l18 -50l-146 -45l93 -127l-42 -32l-95 130l-95 -130l-42 32l93 127l-146 45l18 50l144 -45v145h56v-145z" />
    <glyph glyph-name="plus" unicode="+" horiz-adv-x="666" 
d="M363 333h225v-60h-225v-225h-60v225h-225v60h225v225h60v-225z" />
    <glyph glyph-name="comma" unicode="," horiz-adv-x="260" 
d="M23 -140h-57l109 235h71z" />
    <glyph glyph-name="hyphen" unicode="-" horiz-adv-x="320" 
d="M256 214h-224l10 57h224z" />
    <glyph glyph-name="period" unicode="." horiz-adv-x="260" 
d="M131 49q0 -22 -15.5 -38.5t-38.5 -16.5q-22 0 -37.5 14t-15.5 38t16.5 40t38.5 16t37 -14t15 -39z" />
    <glyph glyph-name="slash" unicode="/" horiz-adv-x="370" 
d="M6 -18l-55 19l431 725l53 -20z" />
    <glyph glyph-name="zero" unicode="0" 
d="M358 726q50 0 85 -19t57.5 -52t32.5 -77t10 -93q0 -51 -7.5 -108t-23 -113t-39.5 -107t-58 -90t-77.5 -62t-98.5 -23q-51 0 -86 19t-57 51t-32 75.5t-10 93.5q0 52 7 109.5t22.5 113.5t40 107t58 90t77.5 62t99 23zM353 666q-50 0 -91.5 -38.5t-71.5 -101t-47 -141
t-17 -158.5q0 -37 6 -70.5t19.5 -58.5t36.5 -40t56 -15q49 0 90.5 38t71.5 100t47 140t17 158q0 37 -6 71t-19.5 60t-36 41t-55.5 15z" />
    <glyph glyph-name="one" unicode="1" 
d="M304 0h-70l109 621l-149 -111l-35 52l206 146h64z" />
    <glyph glyph-name="two" unicode="2" 
d="M454 0h-453l13 75l339 293q26 22 46.5 42.5t35 42t22.5 45.5t8 53q0 27 -10.5 48t-28 36t-40.5 22.5t-49 7.5q-65 0 -105 -36t-55 -88l-68 14q11 36 31.5 67.5t50 54.5t67 36t82.5 13q38 0 73.5 -10.5t63 -32t44 -53t16.5 -73.5q0 -43 -10 -74.5t-28.5 -58.5t-45 -52
t-60.5 -54l-299 -255h371z" />
    <glyph glyph-name="three" unicode="3" 
d="M231 401h31q90 0 140.5 38.5t50.5 117.5q0 52 -35 80t-85 28q-47 0 -85.5 -22t-61.5 -65l-58 33q75 115 208 115q38 0 72 -10.5t60 -32t41.5 -53t15.5 -73.5q0 -31 -9 -60t-28 -53.5t-48.5 -43t-69.5 -29.5v-2q24 -6 45 -19t37 -32.5t25 -44.5t9 -53q0 -51 -17.5 -95
t-50 -75.5t-78.5 -49.5t-103 -18q-39 0 -73.5 10t-62.5 28.5t-48.5 45.5t-30.5 61l71 25q5 -26 19 -46t34 -34t45 -21t52 -7q37 0 68 12t53.5 34t35 53t12.5 70q0 67 -44.5 97.5t-116.5 30.5h-31z" />
    <glyph glyph-name="four" unicode="4" 
d="M422 234h105l-11 -63h-105l-30 -171h-69l30 171h-324l12 73l380 464h96zM423 627h-2l-320 -393h252z" />
    <glyph glyph-name="five" unicode="5" 
d="M517 645h-278l-44 -220q44 16 91 16t85 -14.5t65 -40.5t42 -61t15 -75q0 -53 -16.5 -101.5t-49.5 -85.5t-83.5 -59t-118.5 -22q-77 0 -129.5 36.5t-72.5 92.5l66 29q14 -44 51.5 -70t85.5 -26q47 0 83 15t60 40.5t36.5 60.5t12.5 76q0 66 -41 107.5t-111 41.5
q-38 0 -80.5 -11t-72.5 -29l72 363h343z" />
    <glyph glyph-name="six" unicode="6" 
d="M217 399l2 -2q19 12 43 19t51 7q42 0 77 -13.5t60.5 -38.5t40 -59.5t14.5 -76.5q0 -56 -19 -102.5t-53.5 -80t-81.5 -52t-104 -18.5q-47 0 -85 15.5t-66 43t-43 64.5t-15 79q0 52 25 102.5t75 112.5l250 309h87zM110 182q0 -29 9.5 -54.5t27.5 -44.5t44 -30.5t58 -11.5
q42 0 76 14.5t58.5 40t37.5 60t13 73.5q0 28 -9 53t-26 44t-42 30t-57 11q-41 0 -75.5 -14t-60 -39t-40 -59t-14.5 -73z" />
    <glyph glyph-name="seven" unicode="7" 
d="M557 642l-402 -642h-84l413 645h-346l11 63h420z" />
    <glyph glyph-name="eight" unicode="8" 
d="M387 373q49 -14 81 -53t32 -96q0 -60 -21.5 -105.5t-57.5 -76t-82 -45.5t-94 -15q-42 0 -79.5 12t-65.5 35.5t-44.5 58t-16.5 78.5q0 42 14.5 77.5t39 62.5t56.5 45t67 26v2q-42 17 -66.5 52.5t-24.5 80.5t16.5 84t46 68t70 45.5t87.5 16.5q40 0 74.5 -11t59 -32.5
t38.5 -52.5t14 -71q0 -35 -11.5 -64.5t-31 -53t-45.5 -40.5t-56 -26v-2v0zM194 517q0 -23 7.5 -43t22.5 -36t36 -25t48 -9q35 0 63.5 14t48.5 35.5t30.5 46.5t10.5 48q0 58 -32.5 88t-88.5 30q-32 0 -58.5 -12.5t-46 -33t-30.5 -47.5t-11 -56zM112 170q0 -57 36 -92t98 -35
q43 0 77 13.5t57 37.5t35.5 56t12.5 70q0 26 -9.5 49t-27 40t-42 26.5t-53.5 9.5q-39 0 -72.5 -13.5t-58.5 -37t-39 -55.5t-14 -69z" />
    <glyph glyph-name="nine" unicode="9" 
d="M387 309l-2 2q-19 -12 -43 -19t-51 -7q-42 0 -77.5 13.5t-61 38.5t-39.5 59.5t-14 76.5q0 56 19 102.5t53.5 80t81.5 52t104 18.5q46 0 84.5 -15.5t66.5 -43t43 -64.5t15 -79q0 -52 -25 -102.5t-75 -112.5l-250 -309h-87zM495 526q0 28 -10 54t-28 45t-44 30.5t-58 11.5
q-42 0 -76 -15t-58.5 -40.5t-37.5 -59.5t-13 -73q0 -28 9 -53t26 -43.5t42 -29.5t57 -11q40 0 75 14t61 38.5t40.5 58.5t14.5 73z" />
    <glyph glyph-name="colon" unicode=":" horiz-adv-x="300" 
d="M157 49q0 -22 -15.5 -38.5t-38.5 -16.5q-22 0 -37.5 14t-15.5 38t16.5 40t38.5 16t37 -14t15 -39zM215 421q0 -22 -15.5 -38.5t-38.5 -16.5q-22 0 -37.5 14t-15.5 38t16.5 40t38.5 16t37 -14t15 -39z" />
    <glyph glyph-name="semicolon" unicode=";" horiz-adv-x="300" 
d="M39 -140h-60l109 235h74zM215 421q0 -22 -15.5 -38.5t-38.5 -16.5q-22 0 -37.5 14t-15.5 38t16.5 40t38.5 16t37 -14t15 -39z" />
    <glyph glyph-name="less" unicode="&#x3c;" horiz-adv-x="666" 
d="M588 504l-429 -201l429 -201v-60l-510 238v46l510 238v-60z" />
    <glyph glyph-name="equal" unicode="=" horiz-adv-x="666" 
d="M588 408v-60h-510v60h510zM588 258v-60h-510v60h510z" />
    <glyph glyph-name="greater" unicode="&#x3e;" horiz-adv-x="666" 
d="M78 564l510 -238v-46l-510 -238v60l429 201l-429 201v60z" />
    <glyph glyph-name="question" unicode="?" horiz-adv-x="482" 
d="M254 192h-68l10 60q10 57 37.5 91.5t62.5 61.5l33 25q37 29 60.5 57t23.5 72q0 45 -29 72t-75 27q-64 0 -100 -34t-47 -83l-65 12q9 39 29.5 69.5t48.5 52.5t62 33.5t71 11.5t69 -9.5t56 -29.5t38 -50t14 -70q0 -32 -9 -58t-25 -47.5t-38 -40.5t-47 -37
q-24 -17 -42 -31.5t-30.5 -31t-21 -36.5t-12.5 -47zM262 49q0 -22 -15.5 -38.5t-38.5 -16.5q-22 0 -37.5 14t-15.5 38t16.5 40t38.5 16t37 -14t15 -39z" />
    <glyph glyph-name="at" unicode="@" horiz-adv-x="800" 
d="M444 489q-29 0 -56 -15t-48 -41.5t-33.5 -62t-12.5 -77.5q0 -14 3 -27.5t10 -24t19.5 -17t32.5 -6.5q33 0 61 18t48.5 47t32 64t11.5 70q0 29 -14.5 50.5t-53.5 21.5zM702 99q-69 -60 -149.5 -88.5t-172.5 -28.5q-79 0 -142 23t-107 64.5t-67.5 98t-23.5 122.5
q0 90 32 169t90 138.5t138 94t175 34.5q65 0 121.5 -18.5t98 -54t65.5 -87t24 -117.5q0 -52 -13 -103.5t-39.5 -93t-67 -67t-94.5 -25.5q-22 0 -39.5 6t-28.5 16.5t-15.5 23.5t-0.5 28h-4q-8 -12 -21 -25t-30 -24t-37.5 -18t-43.5 -7q-67 0 -98 36t-31 93q0 36 13.5 81
t42 85t72 67t102.5 27q38 0 66 -17.5t34 -42.5h4l18 45h62l-73 -186q-3 -7 -7 -18.5t-8 -24.5t-7 -25.5t-3 -19.5q0 -21 11 -32.5t37 -11.5q31 0 56 20.5t42.5 53t27 71.5t9.5 76q0 54 -18 96.5t-51 72t-79 45t-101 15.5q-77 0 -142.5 -29t-114 -80t-76 -120t-27.5 -148
q0 -56 19.5 -102t55.5 -78.5t87 -50.5t114 -18q88 0 157 27.5t129 77.5z" />
    <glyph glyph-name="A" unicode="A" horiz-adv-x="695" 
d="M31 0h-82l456 708h70l147 -708h-75l-38 186h-362zM188 252h310l-74 376z" />
    <glyph glyph-name="B" unicode="B" horiz-adv-x="620" 
d="M165 708h204q37 0 73.5 -8t66 -26.5t48 -48t18.5 -72.5q0 -71 -43 -117.5t-113 -63.5v-2q58 -9 95 -48.5t37 -102.5q0 -54 -22.5 -95t-62.5 -68.5t-95.5 -41.5t-121.5 -14h-209zM181 398h145q28 0 59 7t56.5 23.5t42 43t16.5 66.5q0 29 -11.5 49.5t-31.5 34t-47.5 19.5
t-59.5 6h-125zM122 61h134q43 0 83.5 8.5t71 27.5t49 50t18.5 75q0 55 -41.5 86t-118.5 31h-147z" />
    <glyph glyph-name="C" unicode="C" horiz-adv-x="720" 
d="M659 112q-21 -27 -49 -50.5t-63.5 -41t-78 -28t-92.5 -10.5q-71 0 -129.5 22t-100.5 62t-65 96t-23 124q0 92 33 172t90.5 139.5t134.5 94t165 34.5q39 0 75.5 -8t67.5 -22.5t55.5 -35.5t39.5 -47l-65 -43q-8 17 -23.5 34t-37.5 30.5t-50.5 21.5t-63.5 8
q-76 0 -139.5 -31.5t-109 -83t-71 -118.5t-25.5 -138q0 -52 16 -97.5t47.5 -79t77 -53t105.5 -19.5q64 0 122 25.5t104 80.5z" />
    <glyph glyph-name="D" unicode="D" horiz-adv-x="757" 
d="M165 708h214q60 0 119 -16.5t106 -52t76 -92t29 -135.5q0 -93 -32.5 -169t-90.5 -130t-137 -83.5t-172 -29.5h-237zM122 63h160q86 0 151.5 29t110 76.5t67 109t22.5 126.5q0 49 -16 93t-49 77t-84 52t-121 19h-138z" />
    <glyph glyph-name="E" unicode="E" 
d="M122 63h380l-11 -63h-451l125 708h425l-11 -63h-354l-43 -246h338l-11 -61h-338z" />
    <glyph glyph-name="F" unicode="F" horiz-adv-x="550" 
d="M111 0h-71l125 708h417l-11 -63h-346l-44 -247h321l-10 -61h-321z" />
    <glyph glyph-name="G" unicode="G" horiz-adv-x="770" 
d="M380 44q61 0 113 13t88 35l38 217h-167l11 61h237l-56 -319q-64 -37 -130 -53t-138 -16q-71 0 -129.5 22t-100.5 62t-65 96t-23 124q0 92 33 172t90.5 139.5t134.5 94t165 34.5q39 0 75.5 -8t67.5 -22.5t55.5 -35.5t39.5 -47l-65 -43q-8 17 -23.5 34t-37.5 30.5
t-50.5 21.5t-63.5 8q-76 0 -139.5 -31.5t-109 -83t-71 -118.5t-25.5 -138q0 -52 16 -97.5t47.5 -79t77 -53t105.5 -19.5z" />
    <glyph glyph-name="H" unicode="H" horiz-adv-x="708" 
d="M165 708h71l-55 -308h377l55 308h71l-125 -708h-71l59 336h-377l-59 -336h-71z" />
    <glyph glyph-name="I" unicode="I" horiz-adv-x="260" 
d="M111 0h-71l125 708h71z" />
    <glyph glyph-name="J" unicode="J" horiz-adv-x="482" 
d="M53 140q7 -40 33 -68t74 -28q39 0 64 14t41.5 37t25 52.5t14.5 61.5l88 499h71l-89 -504q-6 -35 -17 -74t-34.5 -72t-61.5 -54.5t-98 -21.5q-39 0 -70 11t-52.5 30t-34.5 44t-17 53z" />
    <glyph glyph-name="K" unicode="K" horiz-adv-x="585" 
d="M180 390h1l360 318h104l-387 -328l296 -380h-93l-283 377h-1l-66 -377h-71l125 708h71z" />
    <glyph glyph-name="L" unicode="L" horiz-adv-x="510" 
d="M121 63h331l-10 -63h-402l125 708h71z" />
    <glyph glyph-name="M" unicode="M" horiz-adv-x="886" 
d="M407 122h1l343 586h109l-125 -708h-71l108 612h-2l-364 -612h-38l-148 612h-2l-108 -612h-70l125 708h108z" />
    <glyph glyph-name="N" unicode="N" horiz-adv-x="750" 
d="M546 101h2l107 607h71l-125 -708h-89l-290 615h-2l-108 -615h-71l125 708h89z" />
    <glyph glyph-name="O" unicode="O" horiz-adv-x="834" 
d="M373 -18q-69 0 -127 22t-100 62t-65 96t-23 124q0 91 32 171.5t87.5 140t131 94t162.5 34.5q69 0 127 -21.5t99.5 -61.5t65 -95.5t23.5 -123.5q0 -91 -31 -171.5t-86 -140.5t-131 -95t-165 -35zM710 417q0 51 -16 96t-46.5 78.5t-76 53t-103.5 19.5q-75 0 -137 -31.5
t-105.5 -83.5t-67.5 -119t-24 -138q0 -51 15.5 -96.5t46.5 -79t76 -53t104 -19.5q74 0 135.5 31t105.5 83t68.5 119.5t24.5 139.5z" />
    <glyph glyph-name="P" unicode="P" 
d="M165 708h189q104 0 161 -45t57 -125q0 -52 -20 -91t-55.5 -65.5t-85 -39.5t-108.5 -13h-134l-58 -329h-71zM179 388h130q90 0 140.5 36t50.5 106q0 65 -41 91t-111 26h-123z" />
    <glyph glyph-name="Q" unicode="Q" horiz-adv-x="836" 
d="M709 411q0 54 -16 100t-47.5 80t-77 53.5t-103.5 19.5q-75 0 -136.5 -31t-104.5 -82t-66.5 -115.5t-23.5 -131.5q0 -115 69.5 -179t190.5 -64q62 0 119 28t100.5 75.5t69.5 111t26 135.5zM785 424q0 -64 -16.5 -120.5t-46 -102.5t-68.5 -80.5t-84 -55.5l-1 -2h207
l-11 -63h-375q-68 0 -128 18t-105 54t-71 91.5t-26 130.5q0 90 31 168.5t85.5 137t129.5 92.5t162 34q69 0 127 -21.5t100.5 -61.5t66 -95.5t23.5 -123.5z" />
    <glyph glyph-name="R" unicode="R" horiz-adv-x="599" 
d="M111 0h-71l125 708h191q47 0 87 -10t69.5 -31t46 -53t16.5 -75q0 -49 -16 -85t-44.5 -60.5t-66.5 -38.5t-81 -18l156 -337h-81l-148 331h-125zM180 391h126q36 0 71 5.5t63 20.5t45.5 42.5t17.5 71.5q0 58 -42 87t-116 29h-120z" />
    <glyph glyph-name="S" unicode="S" horiz-adv-x="564" 
d="M491 598q-19 28 -55 47t-84 19q-31 0 -62 -8.5t-56 -26t-40.5 -44t-15.5 -63.5q0 -28 10 -48t27.5 -35t41 -26t50.5 -21q31 -12 63 -27t58 -37t42 -51.5t16 -69.5q0 -36 -13 -75.5t-43 -73t-79 -55t-121 -21.5q-65 0 -125 26.5t-92 78.5l64 41q20 -35 60 -59.5t96 -24.5
q36 0 68.5 10.5t57 30t38.5 47.5t14 62q0 30 -12 52t-32.5 38t-47 28t-56.5 23t-59 26t-51 36t-35.5 49.5t-13.5 66.5q0 45 17 84t49 67.5t79 45t107 16.5q72 0 122.5 -23.5t73.5 -60.5z" />
    <glyph glyph-name="T" unicode="T" horiz-adv-x="547" 
d="M250 0h-71l114 645h-237l11 63h546l-11 -63h-238z" />
    <glyph glyph-name="U" unicode="U" horiz-adv-x="710" 
d="M311 -18q-64 0 -108.5 19t-72.5 49.5t-40.5 69t-12.5 77.5q0 35 6 67l78 444h71l-77 -436q-6 -32 -6 -61q0 -34 8.5 -64t28 -53t51 -36.5t78.5 -13.5q56 0 95.5 18.5t66 50t42 73t23.5 86.5l77 436h71l-78 -444q-8 -44 -26.5 -93.5t-53 -91.5t-88.5 -69.5t-133 -27.5z
" />
    <glyph glyph-name="V" unicode="V" horiz-adv-x="600" 
d="M245 93h2l360 615h79l-421 -708h-74l-114 708h76z" />
    <glyph glyph-name="W" unicode="W" horiz-adv-x="960" 
d="M218 99h2l295 609h86l59 -609h2l291 609h76l-345 -708h-84l-57 610h-2l-299 -610h-84l-73 708h76z" />
    <glyph glyph-name="X" unicode="X" horiz-adv-x="618" 
d="M323 422l251 286h94l-309 -344l182 -364h-86l-149 313l-273 -313h-98l335 372l-169 336h86z" />
    <glyph glyph-name="Y" unicode="Y" horiz-adv-x="557" 
d="M247 0h-71l54 305l-180 403h84l141 -344l283 344h89l-346 -403z" />
    <glyph glyph-name="Z" unicode="Z" horiz-adv-x="572" 
d="M597 648l-518 -585h419l-11 -63h-512l11 60l519 585h-398l11 63h490z" />
    <glyph glyph-name="bracketleft" unicode="[" horiz-adv-x="300" 
d="M286 678h-96l-138 -780h96l-10 -54h-162l157 888h162z" />
    <glyph glyph-name="backslash" unicode="\" horiz-adv-x="370" 
d="M5 706l57 20l303 -725l-58 -19z" />
    <glyph glyph-name="bracketright" unicode="]" horiz-adv-x="300" 
d="M8 -102h96l138 780h-96l9 54h162l-157 -888h-162z" />
    <glyph glyph-name="asciicircum" unicode="^" horiz-adv-x="666" 
d="M309 708h48l229 -433h-62l-191 361l-191 -361h-62z" />
    <glyph glyph-name="underscore" unicode="_" horiz-adv-x="500" 
d="M0 -75h500v-50h-500v50z" />
    <glyph glyph-name="grave" unicode="`" horiz-adv-x="240" 
d="M23 708h88l100 -144h-56z" />
    <glyph glyph-name="a" unicode="a" horiz-adv-x="534" 
d="M383 287q3 17 4 26.5t1 17.5q0 51 -29 72t-81 21q-42 0 -81 -16.5t-65 -39.5l-30 45q34 30 84 48.5t99 18.5q33 0 63.5 -7.5t53 -24t36 -42t13.5 -61.5q0 -9 -1 -24.5t-3 -25.5l-34 -190q-5 -27 -8 -56t-3 -49h-60q0 17 1.5 37t4.5 39h-2q-20 -23 -40 -39.5t-41.5 -26.5
t-46 -14.5t-53.5 -4.5q-24 0 -49 6t-45.5 20.5t-34 37.5t-13.5 57q0 56 32 90.5t83.5 53t115.5 25t129 6.5zM358 236q-45 0 -92 -4.5t-85.5 -17t-63 -35t-24.5 -59.5q0 -22 8 -36.5t21.5 -23t31 -12t35.5 -3.5q36 0 66 12t53 33t38 48.5t21 58.5l7 39h-16z" />
    <glyph glyph-name="b" unicode="b" horiz-adv-x="628" 
d="M120 79l-14 -79h-67l134 756h67l-65 -364h2q11 18 29 34t40.5 28t48.5 19t54 7q48 0 86.5 -14.5t66.5 -41.5t43 -64t15 -82q0 -60 -21 -113t-57.5 -92t-87 -62t-109.5 -23q-25 0 -49.5 6t-46.5 17.5t-39.5 28.5t-27.5 39h-2zM490 274q0 31 -9.5 58.5t-28.5 48t-46 32
t-63 11.5q-44 0 -82 -18t-66 -49.5t-44 -73t-16 -87.5q0 -33 10.5 -60.5t30.5 -48t47.5 -31.5t62.5 -11q46 0 83.5 18t64.5 49t41.5 72.5t14.5 89.5z" />
    <glyph glyph-name="c" unicode="c" horiz-adv-x="500" 
d="M426 362q-12 27 -41.5 44.5t-67.5 17.5q-45 0 -83 -18t-65.5 -49.5t-43 -73t-15.5 -88.5q0 -32 10 -59.5t29.5 -47.5t47.5 -31.5t64 -11.5q45 0 79 17t59 44l43 -37q-36 -37 -81 -59t-105 -22q-50 0 -90 14.5t-68.5 41t-43.5 63.5t-15 82q0 60 20 113t56.5 92.5
t88.5 62.5t115 23q52 0 97.5 -19t68.5 -60z" />
    <glyph glyph-name="d" unicode="d" horiz-adv-x="622" 
d="M34 190q0 60 20.5 113t57.5 92t87.5 62t109.5 23q51 0 95.5 -23t67.5 -68h2l65 367h67l-134 -756h-67l14 77h-2q-23 -36 -69 -62.5t-103 -26.5q-48 0 -86.5 14.5t-66.5 41.5t-43 64t-15 82zM104 195q0 -32 9.5 -59t28.5 -47.5t46 -32t63 -11.5q44 0 82 18t66 49.5
t44 72.5t16 88q0 33 -10.5 60.5t-30.5 48t-48 31.5t-62 11q-46 0 -83.5 -18t-64.5 -49t-41.5 -72.5t-14.5 -89.5z" />
    <glyph glyph-name="e" unicode="e" horiz-adv-x="566" 
d="M104 216q-1 -6 -1.5 -11.5t-0.5 -10.5q0 -33 11.5 -60t32 -47t48 -31t59.5 -11q55 0 96 24.5t66 57.5l42 -40q-41 -49 -95 -74t-115 -25q-45 0 -84 14t-67.5 40t-45 64.5t-16.5 87.5q0 57 21 109t57.5 91t86 62.5t106.5 23.5q96 0 145.5 -51t49.5 -132q0 -12 -2 -36.5
t-7 -44.5h-387zM431 266q1 8 1.5 17.5t0.5 17.5q0 54 -33 88.5t-97 34.5q-37 0 -68.5 -12.5t-56 -34.5t-41.5 -50.5t-24 -60.5h318z" />
    <glyph glyph-name="f" unicode="f" horiz-adv-x="295" 
d="M306 412h-110l-72 -412h-67l72 412h-99l11 56h97l22 127q6 35 19 66.5t34.5 55t51.5 37.5t70 14q13 0 27 -1.5t28 -5.5l-16 -59q-21 6 -47 6q-24 0 -41.5 -9t-29 -25.5t-19 -38.5t-11.5 -47l-21 -120h112z" />
    <glyph glyph-name="g" unicode="g" horiz-adv-x="627" 
d="M41 -98q25 -36 70.5 -59.5t99.5 -23.5q50 0 86 14.5t60 40t38 59t21 71.5l17 89h-2q-32 -45 -78 -69t-100 -24q-48 0 -86.5 15.5t-65.5 43.5t-41.5 65t-14.5 81q0 57 20.5 107t57 87.5t86.5 59t109 21.5q25 0 50 -6t46.5 -18t38.5 -29.5t27 -39.5h2l15 81h66l-82 -464
q-7 -38 -21 -81t-43.5 -79t-78.5 -60t-127 -24q-69 0 -125 25t-90 69zM114 204q0 -30 10 -57t29 -47.5t47 -32t64 -11.5q45 0 82.5 17.5t64.5 47.5t42 69.5t15 83.5q0 31 -10.5 58.5t-30 47.5t-47.5 32t-63 12q-45 0 -82.5 -16t-64 -44.5t-41.5 -69.5t-15 -90z" />
    <glyph glyph-name="h" unicode="h" horiz-adv-x="577" 
d="M332 480q75 0 117.5 -38.5t42.5 -104.5q0 -12 -1.5 -24t-3.5 -26l-51 -287h-67l46 259q6 31 6 59q0 49 -23.5 77.5t-82.5 28.5q-27 0 -54 -11t-50 -34t-40.5 -57.5t-25.5 -81.5l-42 -240h-67l133 756h67l-64 -365h2q26 41 68 65t90 24z" />
    <glyph glyph-name="i" unicode="i" horiz-adv-x="250" 
d="M104 0h-67l83 468h67zM227 649q0 -20 -13.5 -34t-33.5 -14q-19 0 -32.5 12t-13.5 33t14.5 35t33.5 14t32 -12.5t13 -33.5z" />
    <glyph glyph-name="j" unicode="j" horiz-adv-x="251" 
d="M-99 -176q9 -3 20.5 -4.5t21.5 -1.5q21 0 35 7.5t23 20.5t14 31.5t9 40.5l97 550h67l-99 -561q-5 -28 -13.5 -54.5t-24.5 -47t-42 -33t-66 -12.5q-11 0 -27.5 1.5t-28.5 5.5zM227 649q0 -20 -13.5 -34t-33.5 -14q-19 0 -32.5 12t-13.5 33t14.5 35t33.5 14t32 -12.5
t13 -33.5z" />
    <glyph glyph-name="k" unicode="k" horiz-adv-x="487" 
d="M150 257h3l239 211h93l-257 -217l214 -251h-88l-203 246h-3l-42 -246h-68l133 756h67z" />
    <glyph glyph-name="l" unicode="l" horiz-adv-x="252" 
d="M106 0h-68l133 756h68z" />
    <glyph glyph-name="m" unicode="m" horiz-adv-x="874" 
d="M628 480q76 0 118.5 -38.5t42.5 -104.5q0 -12 -1.5 -24t-3.5 -26l-51 -287h-67l46 259q6 31 6 59q0 49 -23 77.5t-81 28.5q-37 0 -63.5 -15t-45 -40t-29 -56t-16.5 -64l-44 -249h-67l49 272q6 33 6 61q0 42 -20.5 66.5t-72.5 24.5q-24 0 -50 -11t-49 -34t-41 -57.5
t-26 -81.5l-42 -240h-67l64 365q4 19 8.5 49t6.5 54h64q-2 -19 -5 -42t-6 -38h2q29 43 70 67.5t92 24.5q19 0 39.5 -4t39 -15.5t32.5 -30.5t20 -49q27 48 69 73.5t96 25.5z" />
    <glyph glyph-name="n" unicode="n" horiz-adv-x="577" 
d="M180 468q-2 -19 -5 -42t-6 -38h2q27 43 69.5 67.5t90.5 24.5q76 0 118.5 -38.5t42.5 -104.5q0 -12 -1.5 -24t-3.5 -26l-51 -287h-67l46 259q6 31 6 59q0 49 -23 77.5t-81 28.5q-27 0 -54 -11t-50.5 -34t-41.5 -57.5t-26 -81.5l-42 -240h-67l64 365q4 19 8.5 49t6.5 54h65
z" />
    <glyph glyph-name="o" unicode="o" horiz-adv-x="596" 
d="M250 -12q-47 0 -87 15t-68.5 41.5t-44.5 64t-16 82.5q0 59 20.5 111.5t57.5 92t88 62.5t112 23q48 0 87.5 -14.5t68 -41.5t44.5 -64t16 -82q0 -60 -20.5 -113t-57.5 -92t-88 -62t-112 -23zM458 274q0 32 -10 59.5t-29.5 47.5t-47.5 31.5t-63 11.5q-44 0 -81 -18.5
t-64 -50t-42.5 -73t-15.5 -87.5q0 -32 10 -59.5t29.5 -47.5t47 -31.5t62.5 -11.5q45 0 82.5 18.5t64.5 49.5t42 72.5t15 88.5z" />
    <glyph glyph-name="p" unicode="p" horiz-adv-x="628" 
d="M177 392q11 18 29 34t40.5 28t48.5 19t54 7q48 0 86.5 -14.5t66.5 -41.5t43 -64t15 -82q0 -60 -21 -113t-57.5 -92t-87 -62t-109.5 -23q-51 0 -95.5 23t-67.5 68h-2l-57 -319h-67l126 708h67l-14 -76h2v0zM490 274q0 31 -9.5 58.5t-28.5 48t-46 32t-63 11.5
q-44 0 -82 -18t-66 -49.5t-44 -73t-16 -87.5q0 -33 10.5 -60.5t30.5 -48t47.5 -31.5t62.5 -11q46 0 83.5 18t64.5 49t41.5 72.5t14.5 89.5z" />
    <glyph glyph-name="q" unicode="q" horiz-adv-x="620" 
d="M34 190q0 60 20.5 113t57.5 92t87.5 62t109.5 23q51 0 95.5 -23t67.5 -68h2l14 79h67l-125 -708h-67l56 316h-2q-11 -18 -29 -34t-40.5 -28t-48.5 -19t-54 -7q-48 0 -86.5 14.5t-66.5 41.5t-43 64t-15 82zM104 195q0 -32 9.5 -59t28.5 -47.5t46 -32t63 -11.5q44 0 82 18
t66 49.5t44 72.5t16 88q0 33 -10.5 60.5t-30.5 48t-48 31.5t-62 11q-46 0 -83.5 -18t-64.5 -49t-41.5 -72.5t-14.5 -89.5z" />
    <glyph glyph-name="r" unicode="r" horiz-adv-x="348" 
d="M100 365q4 19 8.5 49t6.5 54h64q-2 -19 -5 -42t-6 -38h2q26 41 66 66.5t90 25.5q13 0 23 -1t21 -4l-16 -64q-5 2 -18.5 4t-27.5 2q-27 0 -53 -10t-47.5 -31.5t-38 -55t-24.5 -80.5l-42 -240h-67l64 365v0z" />
    <glyph glyph-name="s" unicode="s" horiz-adv-x="444" 
d="M354 365q-14 26 -42 42.5t-67 16.5q-18 0 -37.5 -4t-36 -13t-27 -23.5t-10.5 -35.5q0 -19 6.5 -31t18.5 -20.5t29 -15t39 -12.5q69 -20 105 -50.5t36 -86.5q0 -38 -17 -65.5t-43 -45t-58 -25.5t-63 -8q-59 0 -110.5 22t-80.5 67l58 38q17 -29 51 -49.5t79 -20.5
q22 0 43 4.5t37.5 14t26.5 25t10 36.5q0 37 -29.5 56.5t-84.5 37.5q-21 7 -42 16t-38 23.5t-27.5 35t-10.5 49.5q0 36 16.5 62t42 42.5t57.5 24.5t64 8q54 0 96.5 -21t61.5 -56z" />
    <glyph glyph-name="t" unicode="t" horiz-adv-x="307" 
d="M303 412h-127l-49 -274q-3 -18 -3 -32q0 -33 16 -44t42 -11q14 0 31 4t26 11l-8 -58q-13 -7 -33.5 -10.5t-43.5 -3.5q-17 0 -34.5 4t-32 14.5t-24 28.5t-9.5 46q0 14 3 32l52 293h-97l11 56h95l23 132h67l-23 -132h129z" />
    <glyph glyph-name="u" unicode="u" horiz-adv-x="577" 
d="M364 0q2 19 5 42t6 38h-2q-27 -43 -69.5 -67.5t-90.5 -24.5q-76 0 -118.5 38.5t-42.5 104.5q0 12 1.5 24t3.5 26l51 287h67l-46 -259q-6 -32 -6 -59q0 -49 23 -77t81 -28q27 0 54 11t50.5 33.5t41.5 57t26 81.5l42 240h67l-64 -365q-4 -19 -8.5 -49t-6.5 -54h-65z" />
    <glyph glyph-name="v" unicode="v" horiz-adv-x="478" 
d="M205 0h-72l-98 468h69l75 -396h2l233 396h73z" />
    <glyph glyph-name="w" unicode="w" horiz-adv-x="733" 
d="M122 468l32 -380h2l198 380h64l55 -380h3l187 380h72l-239 -468h-72l-53 379h-2l-195 -379h-71l-51 468h70z" />
    <glyph glyph-name="x" unicode="x" horiz-adv-x="475" 
d="M315 0l-100 199l-187 -199h-83l240 247l-117 221h72l91 -184l171 184h81l-222 -229l132 -239h-78z" />
    <glyph glyph-name="y" unicode="y" horiz-adv-x="483" 
d="M189 74h2l228 394h75l-354 -589q-33 -54 -68 -86.5t-87 -32.5q-29 0 -57 6l10 62q22 -8 44 -8q32 0 55.5 21.5t46.5 61.5l58 98l-98 467h70z" />
    <glyph glyph-name="z" unicode="z" horiz-adv-x="442" 
d="M421 420l-344 -361h290l-10 -59h-380l8 48l343 363h-265l11 57h356z" />
    <glyph glyph-name="braceleft" unicode="{" horiz-adv-x="300" 
d="M2 318q39 0 64 29t35 82l31 178q6 35 19.5 59t30.5 38.5t38 21t42 6.5h63l-9 -54h-48q-18 0 -31 -7.5t-21 -19.5t-12.5 -27t-7.5 -29l-31 -178q-7 -36 -22 -60.5t-32 -39t-33 -21t-25 -7.5v-2q7 -1 18.5 -6t23 -16.5t19.5 -29t8 -44.5q0 -14 -3 -32l-31 -178
q-3 -15 -3 -32q0 -21 9 -36t36 -15h48l-10 -54h-63q-37 0 -63 19.5t-26 68.5q0 8 1 17t3 20l31 178q3 19 3 36q0 36 -15.5 55.5t-47.5 19.5z" />
    <glyph glyph-name="bar" unicode="|" horiz-adv-x="222" 
d="M141 750v-1000h-60v1000h60z" />
    <glyph glyph-name="braceright" unicode="}" horiz-adv-x="300" 
d="M291 258q-39 0 -64 -29t-34 -82l-31 -178q-6 -35 -19.5 -59t-31 -38.5t-38.5 -21t-42 -6.5h-63l10 54h48q18 0 30.5 7.5t21 19.5t13 27t7.5 29l31 178q6 36 21 60.5t32.5 39t33.5 21t25 7.5v2q-8 1 -19.5 6t-22.5 16t-19 29t-8 44q0 15 3 33l31 178q3 15 3 32q0 21 -9 36
t-36 15h-48l9 54h63q37 0 63.5 -19.5t26.5 -68.5q0 -8 -1 -17.5t-3 -19.5l-31 -178q-4 -19 -4 -38q0 -73 63 -73l-11 -60v0z" />
    <glyph glyph-name="asciitilde" unicode="~" horiz-adv-x="666" 
d="M577 328q-10 -16 -23.5 -32.5t-30.5 -30t-37.5 -22t-44.5 -8.5q-14 0 -26.5 1.5t-25.5 5.5t-27 11t-32 18q-31 20 -54 30t-49 10q-17 0 -32 -7t-27 -17.5t-21 -23.5t-16 -25l-42 40q11 16 24.5 32.5t30 30t37 22t44.5 8.5q28 0 53.5 -7.5t56.5 -27.5q29 -19 54 -30
t49 -11q17 0 32 7t27 18t21.5 24t16.5 24z" />
    <glyph glyph-name="uni00A0" unicode="&#xa0;" horiz-adv-x="250" 
 />
    <glyph glyph-name="exclamdown" unicode="&#xa1;" horiz-adv-x="278" 
d="M97 288h72l-91 -516h-72zM99 431q0 22 15.5 38.5t38.5 16.5q22 0 37.5 -14t15.5 -38t-16.5 -40t-38.5 -16t-37 14t-15 39z" />
    <glyph glyph-name="cent" unicode="&#xa2;" 
d="M242 -8q-78 13 -123 65.5t-45 131.5q0 57 18 107.5t51 89.5t80 63.5t105 29.5l11 61h48l-11 -61q46 -4 85 -23t59 -55l-59 -39q-11 24 -36 41t-58 20l-67 -378q43 1 76.5 18t57.5 43l43 -37q-36 -37 -81.5 -59t-105.5 -22l-11 -60h-48l11 64v0zM319 422q-39 -5 -71 -25
t-55 -51t-35.5 -70t-12.5 -81q0 -54 27.5 -94t81.5 -51z" />
    <glyph glyph-name="sterling" unicode="&#xa3;" 
d="M406 337h-168l-48 -278h263l-11 -59h-436l11 59h102l48 278h-96l11 58h94l16 93q7 38 21.5 80t40.5 77t66.5 58t100.5 23q44 0 81.5 -14.5t62.5 -40.5l-43 -51q-17 20 -42.5 33t-60.5 13q-45 0 -73 -20t-45.5 -48.5t-26 -60t-12.5 -55.5l-15 -87h170z" />
    <glyph glyph-name="currency" unicode="&#xa4;" 
d="M477 431q23 -29 35 -65t12 -81t-13 -83.5t-37 -67.5l86 -86l-39 -40l-88 87q-29 -22 -65.5 -34.5t-78.5 -12.5q-82 0 -145 49l-89 -89l-40 40l88 89q-48 57 -48 148q0 43 11.5 79t33.5 65l-85 85l40 39l85 -84q30 23 67 36.5t82 13.5q44 0 81 -13t66 -37l84 84l40 -39
l-83 -83v0zM289 457q-38 0 -69 -13.5t-53 -37t-33.5 -55t-11.5 -66.5q0 -36 11.5 -67.5t33.5 -55.5t53 -37.5t69 -13.5t69 13.5t52.5 37.5t33.5 55.5t12 67.5q0 35 -12 66.5t-33.5 55t-52.5 37t-69 13.5z" />
    <glyph glyph-name="yen" unicode="&#xa5;" 
d="M241 223l20 107h-165l8 52h153l-159 326h77l134 -300l236 300h86l-272 -326h143l-8 -52h-167l-20 -107h167l-8 -52h-167l-31 -171h-66l31 171h-165l8 52h165z" />
    <glyph glyph-name="brokenbar" unicode="&#xa6;" horiz-adv-x="222" 
d="M141 675v-350h-60v350h60zM141 175v-350h-60v350h60z" />
    <glyph glyph-name="section" unicode="&#xa7;" 
d="M257 404q-16 -2 -34.5 -9t-34.5 -19.5t-27 -31t-11 -43.5q0 -40 23 -60t68 -39l61 -25q16 3 33 12t30.5 22t22 31t8.5 39q0 39 -23.5 61t-55.5 36zM201 441q-27 17 -40.5 43t-13.5 57q0 36 12.5 68t37.5 57t63 39.5t89 14.5q60 0 103 -21.5t61 -54.5l-57 -41
q-18 30 -47 43t-61 13q-35 0 -59 -9t-40 -24t-23 -34.5t-7 -40.5q0 -40 23.5 -61.5t76.5 -43.5q79 -32 114 -66.5t35 -86.5q0 -60 -30.5 -97.5t-82.5 -57.5q44 -41 44 -97q0 -39 -15 -72t-42 -57t-65 -37t-84 -13q-62 0 -110.5 30t-70.5 72l59 42q9 -21 23.5 -37t31 -26
t34.5 -15t34 -5q57 0 95 28t38 83q0 36 -21.5 58.5t-78.5 44.5q-81 30 -115.5 65t-34.5 89q0 51 30 91.5t94 58.5z" />
    <glyph glyph-name="dieresis" unicode="&#xa8;" horiz-adv-x="240" 
d="M128 649q0 -20 -14 -35t-34 -15t-34 12.5t-14 34.5t15 36.5t35 14.5t33 -13t13 -35zM326 649q0 -20 -14.5 -35t-34.5 -15t-33.5 12.5t-13.5 34.5t14.5 36.5t34.5 14.5t33.5 -13t13.5 -35z" />
    <glyph glyph-name="copyright" unicode="&#xa9;" horiz-adv-x="800" 
d="M580 224q-24 -37 -67 -64t-103 -27q-49 0 -90.5 17t-71.5 47t-47 71.5t-17 90.5t17 90t47 71t71.5 47t90.5 17q48 0 92.5 -21t69.5 -58l-52 -40q-14 22 -43.5 40.5t-64.5 18.5q-37 0 -66.5 -13.5t-50 -36.5t-31.5 -52.5t-11 -62.5t10.5 -63t31 -53t49.5 -36.5t66 -13.5
q32 0 63 15t55 50zM20 353q0 79 30 147.5t81.5 119.5t121 80.5t148.5 29.5q78 0 147 -29.5t120.5 -80.5t81.5 -119.5t30 -147.5q0 -78 -30 -146.5t-81.5 -119.5t-120.5 -80t-147 -29q-79 0 -148.5 29t-121 80t-81.5 119.5t-30 146.5zM80 353q0 -66 25.5 -124t69 -101.5
t102 -68.5t124.5 -25t124 25t101.5 68.5t68.5 101.5t25 124t-25 124.5t-68.5 102t-101.5 69t-124 25.5t-124.5 -25.5t-102 -69t-69 -102t-25.5 -124.5z" />
    <glyph glyph-name="ordfeminine" unicode="&#xaa;" horiz-adv-x="350" 
d="M292 607q1 5 1.5 11t0.5 11q0 28 -17 38.5t-44 10.5q-23 0 -46.5 -10.5t-38.5 -23.5l-22 35q20 18 53.5 30t62.5 12q20 0 38.5 -4.5t33 -14.5t23 -25.5t8.5 -37.5q0 -5 -0.5 -14.5t-1.5 -15.5l-21 -114l-4 -34t-2 -29h-43q0 11 1 23t3 23h-1q-39 -53 -105 -53
q-14 0 -31 3.5t-31 12.5t-23.5 24t-9.5 37q0 35 19.5 56t50.5 32t69.5 14t76.5 3zM276 569q-24 0 -49.5 -2t-46.5 -9t-35 -19t-14 -32q0 -24 17.5 -32t36.5 -8q40 0 65 23.5t32 58.5l4 20h-10z" />
    <glyph glyph-name="guillemotleft" unicode="&#xab;" horiz-adv-x="496" 
d="M202 64l-50 -33l-106 209l177 209l41 -37l-147 -177zM383 64l-50 -33l-106 209l177 209l41 -37l-147 -177z" />
    <glyph glyph-name="logicalnot" unicode="&#xac;" horiz-adv-x="666" 
d="M588 130h-60v218h-450v60h510v-278z" />
    <glyph glyph-name="uni00AD" unicode="&#xad;" horiz-adv-x="320" 
d="M256 214h-224l10 57h224z" />
    <glyph glyph-name="registered" unicode="&#xae;" horiz-adv-x="600" 
d="M112 493q0 47 18 88.5t49 72t72.5 48.5t88.5 18t88.5 -18t72.5 -48.5t49 -72t18 -88.5t-18 -88t-49 -71.5t-72.5 -48t-88.5 -17.5t-88.5 17.5t-72.5 48t-49 71.5t-18 88zM148 493q0 -39 15 -74t41 -61.5t61 -41.5t75 -15t75 15t61 41.5t41 61.5t15 74q0 40 -15 75t-41 61
t-61 41t-75 15t-75 -15t-61 -41t-41 -61t-15 -75zM251 622h90q18 0 35 -4t30.5 -13t21.5 -23t8 -35q0 -28 -16 -45.5t-43 -23.5l69 -112h-56l-60 107h-33v-107h-46v256zM334 510q20 0 38 7.5t18 30.5q0 21 -16.5 28t-34.5 7h-42v-73h37z" />
    <glyph glyph-name="macron" unicode="&#xaf;" horiz-adv-x="240" 
d="M307 600h-270l9 54h270z" />
    <glyph glyph-name="degree" unicode="&#xb0;" horiz-adv-x="400" 
d="M399 571q0 -32 -11 -59.5t-31 -47.5t-47.5 -31t-59.5 -11t-59.5 11t-47.5 31t-31 47.5t-11 59.5t11 59.5t31 47.5t47.5 31t59.5 11t59.5 -11t47.5 -31t31 -47.5t11 -59.5zM351 571q0 21 -8 39.5t-21.5 32t-32 21.5t-39.5 8t-39.5 -8t-32 -21.5t-21.5 -32t-8 -39.5
t8 -39.5t21.5 -32t32 -21.5t39.5 -8t39.5 8t32 21.5t21.5 32t8 39.5z" />
    <glyph glyph-name="plusminus" unicode="&#xb1;" horiz-adv-x="666" 
d="M78 407h225v156h60v-156h225v-60h-225v-151h-60v151h-225v60zM78 108h510v-60h-510v60z" />
    <glyph glyph-name="uni00B2" unicode="&#xb2;" horiz-adv-x="370" 
d="M339 344l-11 -54h-281l10 60l187 157q37 31 52 54t15 46q0 26 -18.5 42.5t-50.5 16.5q-29 0 -49.5 -19t-31.5 -51l-55 15q17 50 54.5 78.5t85.5 28.5q60 0 91 -30.5t31 -77.5q0 -23 -6.5 -41.5t-19 -35.5t-30.5 -33.5t-41 -35.5l-146 -120h214z" />
    <glyph glyph-name="uni00B3" unicode="&#xb3;" horiz-adv-x="370" 
d="M195 535q54 0 78.5 20.5t24.5 55.5q0 26 -17 41t-45 15q-29 0 -47 -13t-32 -37l-46 29q22 38 56 56t76 18q50 0 82.5 -27.5t32.5 -78.5q0 -23 -7.5 -41t-20 -30.5t-28 -21t-31.5 -12.5q30 -7 49 -32t19 -56q0 -66 -42 -101.5t-107 -35.5q-51 0 -86.5 24t-49.5 68l60 18
q15 -56 77 -56q42 0 65 21t23 56q0 20 -8 33.5t-21.5 21.5t-30.5 11.5t-35 3.5h-19l9 50h21v0z" />
    <glyph glyph-name="acute" unicode="&#xb4;" horiz-adv-x="240" 
d="M160 564h-56l126 144h88z" />
    <glyph glyph-name="uni00B5" unicode="&#xb5;" horiz-adv-x="556" 
d="M121 468h66l-55 -259q-5 -22 -7.5 -40t-2.5 -33q0 -47 24.5 -67.5t78.5 -20.5q30 0 58.5 12t52.5 35t42 56.5t27 76.5l51 240h66l-78 -365q-5 -26 -8.5 -51.5t-7.5 -51.5h-71l16 76h-2q-15 -18 -35.5 -34t-44 -28t-48.5 -19t-48 -7q-69 0 -104 29l-52 -245h-66z" />
    <glyph glyph-name="paragraph" unicode="&#xb6;" horiz-adv-x="600" 
d="M437 -126h-66l137 780h-124l-137 -780h-66l78 442q-41 0 -74 11.5t-56.5 32.5t-36 49t-12.5 61q0 49 19.5 92.5t54.5 76t84 51t109 18.5h237z" />
    <glyph glyph-name="periodcentered" unicode="&#xb7;" horiz-adv-x="260" 
d="M184 315q0 -22 -15.5 -38.5t-38.5 -16.5q-22 0 -37.5 14t-15.5 38t16.5 40t38.5 16t37 -14t15 -39z" />
    <glyph glyph-name="cedilla" unicode="&#xb8;" horiz-adv-x="240" 
d="M42 -75q8 2 15.5 3t15.5 1q12 0 25.5 -3.5t24 -11.5t17.5 -20.5t7 -31.5q0 -26 -11.5 -43.5t-29.5 -28t-39 -15.5t-40 -5q-20 0 -48.5 5t-48.5 15l19 36q16 -8 35.5 -11t38.5 -3q11 0 22.5 2t21.5 7.5t16 14t6 21.5q0 20 -14.5 29t-35.5 9q-22 0 -44 -8l-15 15l79 98h43z
" />
    <glyph glyph-name="uni00B9" unicode="&#xb9;" horiz-adv-x="370" 
d="M228 286h-61l61 346l-74 -57l-30 41l128 92h51z" />
    <glyph glyph-name="ordmasculine" unicode="&#xba;" horiz-adv-x="350" 
d="M199 424q-29 0 -53.5 9t-42 25t-27.5 38.5t-10 49.5q0 36 13 67.5t35.5 55t54 37.5t68.5 14q29 0 53.5 -9t42.5 -24.5t28 -38t10 -49.5q0 -36 -12.5 -68t-35.5 -55.5t-54.5 -37.5t-69.5 -14zM316 594q0 35 -22 58.5t-60 23.5q-24 0 -44.5 -10t-35.5 -27.5t-23.5 -40
t-8.5 -47.5q0 -35 21.5 -58.5t59.5 -23.5q25 0 45.5 10t35.5 27.5t23.5 40t8.5 47.5z" />
    <glyph glyph-name="guillemotright" unicode="&#xbb;" horiz-adv-x="496" 
d="M273 416l50 33l106 -209l-177 -209l-41 37l147 177zM92 416l50 33l106 -209l-177 -209l-41 37l147 177z" />
    <glyph glyph-name="onequarter" unicode="&#xbc;" horiz-adv-x="840" 
d="M228 286h-61l61 346l-74 -57l-30 41l128 92h51zM696 152h66l-10 -54h-63l-17 -98h-55l17 98h-191l9 52l223 272h68zM671 340l-155 -188h125l33 188h-3zM155 -31l-45 27l582 743l44 -27z" />
    <glyph glyph-name="onehalf" unicode="&#xbd;" horiz-adv-x="840" 
d="M155 -31l-45 27l582 743l44 -27zM228 286h-61l61 346l-74 -57l-30 41l128 92h51zM753 54l-11 -54h-281l10 60l187 157q37 31 52 54t15 46q0 26 -18.5 42.5t-50.5 16.5q-29 0 -49.5 -19t-31.5 -51l-55 15q17 50 54.5 78.5t85.5 28.5q60 0 91 -30.5t31 -77.5
q0 -23 -6.5 -41.5t-19 -35.5t-30.5 -33.5t-41 -35.5l-146 -120h214z" />
    <glyph glyph-name="threequarters" unicode="&#xbe;" horiz-adv-x="840" 
d="M696 152h66l-10 -54h-63l-17 -98h-55l17 98h-191l9 52l223 272h68zM671 340l-155 -188h125l33 188h-3zM195 535q54 0 78.5 20.5t24.5 55.5q0 26 -17 41t-45 15q-29 0 -47 -13t-32 -37l-46 29q22 38 56 56t76 18q50 0 82.5 -27.5t32.5 -78.5q0 -23 -7.5 -41t-20 -30.5
t-28 -21t-31.5 -12.5q30 -7 49 -32t19 -56q0 -66 -42 -101.5t-107 -35.5q-51 0 -86.5 24t-49.5 68l60 18q15 -56 77 -56q42 0 65 21t23 56q0 20 -8 33.5t-21.5 21.5t-30.5 11.5t-35 3.5h-19l9 50h21v0zM155 -31l-45 27l582 743l44 -27z" />
    <glyph glyph-name="questiondown" unicode="&#xbf;" horiz-adv-x="482" 
d="M203 288h68l-10 -60q-5 -29 -15.5 -51t-24.5 -40t-30.5 -33t-34.5 -28l-33 -25q-18 -14 -33 -27.5t-25 -28.5t-15.5 -33t-5.5 -41q0 -45 29 -72t75 -27q59 0 97.5 34t49.5 83l65 -12q-19 -78 -77.5 -122.5t-136.5 -44.5q-37 0 -68.5 9.5t-55 29.5t-37 49.5t-13.5 70.5
q0 60 34.5 103t85.5 79q24 17 41.5 31.5t30.5 31t21 37t12 47.5zM195 431q0 22 15.5 38.5t38.5 16.5q22 0 37.5 -14t15.5 -38t-16.5 -40t-38.5 -16t-37 14t-15 39z" />
    <glyph glyph-name="Agrave" unicode="&#xc0;" horiz-adv-x="695" 
d="M31 0h-82l456 708h70l147 -708h-75l-38 186h-362zM188 252h310l-74 376zM286 908h88l100 -144h-56z" />
    <glyph glyph-name="Aacute" unicode="&#xc1;" horiz-adv-x="695" 
d="M31 0h-82l456 708h70l147 -708h-75l-38 186h-362zM188 252h310l-74 376zM460 764h-56l126 144h88z" />
    <glyph glyph-name="Acircumflex" unicode="&#xc2;" horiz-adv-x="695" 
d="M31 0h-82l456 708h70l147 -708h-75l-38 186h-362zM188 252h310l-74 376zM595 764h-63l-64 108l-102 -108h-69l135 144h80z" />
    <glyph glyph-name="Atilde" unicode="&#xc3;" horiz-adv-x="695" 
d="M31 0h-82l456 708h70l147 -708h-75l-38 186h-362zM188 252h310l-74 376zM290 776q7 19 16.5 38t23 33.5t30.5 23.5t40 9q18 0 35 -7t34 -16q17 -8 32.5 -15.5t30.5 -7.5q23 0 36.5 15.5t21.5 34.5h43q-7 -20 -17 -38.5t-23.5 -33t-31 -23.5t-39.5 -9q-18 0 -35 7.5
t-34 15.5q-16 9 -31.5 16t-31.5 7q-23 0 -36 -15.5t-21 -34.5h-43z" />
    <glyph glyph-name="Adieresis" unicode="&#xc4;" horiz-adv-x="695" 
d="M31 0h-82l456 708h70l147 -708h-75l-38 186h-362zM188 252h310l-74 376zM410 849q0 -20 -14 -35t-34 -15t-34 12.5t-14 34.5t15 36.5t35 14.5t33 -13t13 -35zM608 849q0 -20 -14.5 -35t-34.5 -15t-33.5 12.5t-13.5 34.5t14.5 36.5t34.5 14.5t33.5 -13t13.5 -35z" />
    <glyph glyph-name="Aring" unicode="&#xc5;" horiz-adv-x="695" 
d="M31 0h-82l456 708h70l147 -708h-75l-38 186h-362zM188 252h310l-74 376zM451 754q-38 0 -61.5 22t-23.5 57q0 23 8 43.5t22.5 36t34 24.5t43.5 9q38 0 61.5 -22t23.5 -57q0 -47 -30 -80t-78 -33zM525 865q0 22 -14 37t-39 15q-31 0 -51 -24t-20 -57q0 -23 14 -37.5
t38 -14.5q32 0 52 24t20 57z" />
    <glyph glyph-name="AE" unicode="&#xc6;" horiz-adv-x="990" 
d="M465 0l35 200h-291l-163 -200h-89l586 708h445l-11 -63h-328l-43 -246h312l-11 -61h-312l-49 -275h354l-11 -63h-424zM511 261l68 384h-8l-315 -384h255z" />
    <glyph glyph-name="Ccedilla" unicode="&#xc7;" horiz-adv-x="720" 
d="M659 112q-41 -51 -106.5 -88t-158.5 -41l-46 -58q8 2 15.5 3t15.5 1q12 0 25.5 -3.5t24 -11.5t17.5 -20.5t7 -31.5q0 -26 -11.5 -43.5t-29.5 -28t-39 -15.5t-40 -5q-20 0 -48.5 5t-48.5 15l19 36q16 -8 35.5 -11t38.5 -3q11 0 22.5 2t21.5 7.5t16 14t6 21.5
q0 20 -14.5 29t-35.5 9q-22 0 -44 -8l-15 15l65 81q-66 4 -120 27.5t-92.5 63t-59.5 93.5t-21 119q0 92 33 172t90.5 139.5t134.5 94t165 34.5q39 0 75.5 -8t67.5 -22.5t55.5 -35.5t39.5 -47l-65 -43q-8 17 -23.5 34t-37.5 30.5t-50.5 21.5t-63.5 8q-76 0 -139.5 -31.5
t-109 -83t-71 -118.5t-25.5 -138q0 -52 16 -97.5t47.5 -79t77 -53t105.5 -19.5q64 0 122 25.5t104 80.5z" />
    <glyph glyph-name="Egrave" unicode="&#xc8;" 
d="M122 63h380l-11 -63h-451l125 708h425l-11 -63h-354l-43 -246h338l-11 -61h-338zM258 908h88l100 -144h-56z" />
    <glyph glyph-name="Eacute" unicode="&#xc9;" 
d="M122 63h380l-11 -63h-451l125 708h425l-11 -63h-354l-43 -246h338l-11 -61h-338zM401 764h-56l126 144h88z" />
    <glyph glyph-name="Ecircumflex" unicode="&#xca;" 
d="M122 63h380l-11 -63h-451l125 708h425l-11 -63h-354l-43 -246h338l-11 -61h-338zM535 764h-63l-64 108l-102 -108h-69l135 144h80z" />
    <glyph glyph-name="Edieresis" unicode="&#xcb;" 
d="M122 63h380l-11 -63h-451l125 708h425l-11 -63h-354l-43 -246h338l-11 -61h-338zM348 849q0 -20 -14 -35t-34 -15t-34 12.5t-14 34.5t15 36.5t35 14.5t33 -13t13 -35zM546 849q0 -20 -14.5 -35t-34.5 -15t-33.5 12.5t-13.5 34.5t14.5 36.5t34.5 14.5t33.5 -13t13.5 -35z
" />
    <glyph glyph-name="Igrave" unicode="&#xcc;" horiz-adv-x="260" 
d="M111 0h-71l125 708h71zM50 908h88l100 -144h-56z" />
    <glyph glyph-name="Iacute" unicode="&#xcd;" horiz-adv-x="260" 
d="M111 0h-71l125 708h71zM229 764h-56l126 144h88z" />
    <glyph glyph-name="Icircumflex" unicode="&#xce;" horiz-adv-x="260" 
d="M111 0h-71l125 708h71zM357 764h-63l-64 108l-102 -108h-69l135 144h80z" />
    <glyph glyph-name="Idieresis" unicode="&#xcf;" horiz-adv-x="260" 
d="M111 0h-71l125 708h71zM169 849q0 -20 -14 -35t-34 -15t-34 12.5t-14 34.5t15 36.5t35 14.5t33 -13t13 -35zM367 849q0 -20 -14.5 -35t-34.5 -15t-33.5 12.5t-13.5 34.5t14.5 36.5t34.5 14.5t33.5 -13t13.5 -35z" />
    <glyph glyph-name="Eth" unicode="&#xd0;" horiz-adv-x="757" 
d="M31 347l10 54h70l54 307h214q60 0 119 -16.5t106 -52t76 -92t29 -135.5q0 -93 -32.5 -169t-90.5 -130t-137 -83.5t-172 -29.5h-237l61 347h-70zM433 401l-10 -54h-251l-50 -284h160q86 0 151.5 29t110 76.5t67 109t22.5 126.5q0 49 -16 93t-49 77t-84 52t-121 19h-138
l-43 -244h251z" />
    <glyph glyph-name="Ntilde" unicode="&#xd1;" horiz-adv-x="750" 
d="M546 101h2l107 607h71l-125 -708h-89l-290 615h-2l-108 -615h-71l125 708h89zM291 776q7 19 16.5 38t23 33.5t30.5 23.5t40 9q18 0 35 -7t34 -16q17 -8 32.5 -15.5t30.5 -7.5q23 0 36.5 15.5t21.5 34.5h43q-7 -20 -17 -38.5t-23.5 -33t-31 -23.5t-39.5 -9q-18 0 -35 7.5
t-34 15.5q-16 9 -31.5 16t-31.5 7q-23 0 -36 -15.5t-21 -34.5h-43z" />
    <glyph glyph-name="Ograve" unicode="&#xd2;" horiz-adv-x="834" 
d="M373 -18q-69 0 -127 22t-100 62t-65 96t-23 124q0 91 32 171.5t87.5 140t131 94t162.5 34.5q69 0 127 -21.5t99.5 -61.5t65 -95.5t23.5 -123.5q0 -91 -31 -171.5t-86 -140.5t-131 -95t-165 -35zM710 417q0 51 -16 96t-46.5 78.5t-76 53t-103.5 19.5q-75 0 -137 -31.5
t-105.5 -83.5t-67.5 -119t-24 -138q0 -51 15.5 -96.5t46.5 -79t76 -53t104 -19.5q74 0 135.5 31t105.5 83t68.5 119.5t24.5 139.5zM351 908h88l100 -144h-56z" />
    <glyph glyph-name="Oacute" unicode="&#xd3;" horiz-adv-x="834" 
d="M373 -18q-69 0 -127 22t-100 62t-65 96t-23 124q0 91 32 171.5t87.5 140t131 94t162.5 34.5q69 0 127 -21.5t99.5 -61.5t65 -95.5t23.5 -123.5q0 -91 -31 -171.5t-86 -140.5t-131 -95t-165 -35zM710 417q0 51 -16 96t-46.5 78.5t-76 53t-103.5 19.5q-75 0 -137 -31.5
t-105.5 -83.5t-67.5 -119t-24 -138q0 -51 15.5 -96.5t46.5 -79t76 -53t104 -19.5q74 0 135.5 31t105.5 83t68.5 119.5t24.5 139.5zM496 764h-56l126 144h88z" />
    <glyph glyph-name="Ocircumflex" unicode="&#xd4;" horiz-adv-x="834" 
d="M373 -18q-69 0 -127 22t-100 62t-65 96t-23 124q0 91 32 171.5t87.5 140t131 94t162.5 34.5q69 0 127 -21.5t99.5 -61.5t65 -95.5t23.5 -123.5q0 -91 -31 -171.5t-86 -140.5t-131 -95t-165 -35zM710 417q0 51 -16 96t-46.5 78.5t-76 53t-103.5 19.5q-75 0 -137 -31.5
t-105.5 -83.5t-67.5 -119t-24 -138q0 -51 15.5 -96.5t46.5 -79t76 -53t104 -19.5q74 0 135.5 31t105.5 83t68.5 119.5t24.5 139.5zM644 764h-63l-64 108l-102 -108h-69l135 144h80z" />
    <glyph glyph-name="Otilde" unicode="&#xd5;" horiz-adv-x="834" 
d="M373 -18q-69 0 -127 22t-100 62t-65 96t-23 124q0 91 32 171.5t87.5 140t131 94t162.5 34.5q69 0 127 -21.5t99.5 -61.5t65 -95.5t23.5 -123.5q0 -91 -31 -171.5t-86 -140.5t-131 -95t-165 -35zM710 417q0 51 -16 96t-46.5 78.5t-76 53t-103.5 19.5q-75 0 -137 -31.5
t-105.5 -83.5t-67.5 -119t-24 -138q0 -51 15.5 -96.5t46.5 -79t76 -53t104 -19.5q74 0 135.5 31t105.5 83t68.5 119.5t24.5 139.5zM332 776q7 19 16.5 38t23 33.5t30.5 23.5t40 9q18 0 35 -7t34 -16q17 -8 32.5 -15.5t30.5 -7.5q23 0 36.5 15.5t21.5 34.5h43
q-7 -20 -17 -38.5t-23.5 -33t-31 -23.5t-39.5 -9q-18 0 -35 7.5t-34 15.5q-16 9 -31.5 16t-31.5 7q-23 0 -36 -15.5t-21 -34.5h-43z" />
    <glyph glyph-name="Odieresis" unicode="&#xd6;" horiz-adv-x="834" 
d="M373 -18q-69 0 -127 22t-100 62t-65 96t-23 124q0 91 32 171.5t87.5 140t131 94t162.5 34.5q69 0 127 -21.5t99.5 -61.5t65 -95.5t23.5 -123.5q0 -91 -31 -171.5t-86 -140.5t-131 -95t-165 -35zM710 417q0 51 -16 96t-46.5 78.5t-76 53t-103.5 19.5q-75 0 -137 -31.5
t-105.5 -83.5t-67.5 -119t-24 -138q0 -51 15.5 -96.5t46.5 -79t76 -53t104 -19.5q74 0 135.5 31t105.5 83t68.5 119.5t24.5 139.5zM455 849q0 -20 -14 -35t-34 -15t-34 12.5t-14 34.5t15 36.5t35 14.5t33 -13t13 -35zM653 849q0 -20 -14.5 -35t-34.5 -15t-33.5 12.5
t-13.5 34.5t14.5 36.5t34.5 14.5t33.5 -13t13.5 -35z" />
    <glyph glyph-name="multiply" unicode="&#xd7;" horiz-adv-x="666" 
d="M333 346l158 159l43 -42l-159 -160l159 -159l-43 -43l-158 159l-159 -159l-42 43l159 159l-159 160l42 42z" />
    <glyph glyph-name="Oslash" unicode="&#xd8;" horiz-adv-x="834" 
d="M735 608q28 -37 43 -83t15 -101q0 -91 -32 -171.5t-88.5 -140.5t-133.5 -95t-166 -35q-70 0 -128 22t-100 63l-90 -85l-30 34l91 84q-28 38 -43 84.5t-15 101.5q0 91 33 171.5t90 140t133.5 94t163.5 34.5q69 0 127 -22t100 -62l90 84l30 -34l-90 -84v0zM198 115
q30 -33 74.5 -52t103.5 -19q74 0 136.5 31t108 83t71 119.5t25.5 139.5q0 80 -37 141zM652 595q-31 32 -75 50.5t-102 18.5q-75 0 -138 -31.5t-108 -83.5t-70 -119t-25 -138q0 -81 38 -143l480 446v0z" />
    <glyph glyph-name="Ugrave" unicode="&#xd9;" horiz-adv-x="710" 
d="M311 -18q-64 0 -108.5 19t-72.5 49.5t-40.5 69t-12.5 77.5q0 35 6 67l78 444h71l-77 -436q-6 -32 -6 -61q0 -34 8.5 -64t28 -53t51 -36.5t78.5 -13.5q56 0 95.5 18.5t66 50t42 73t23.5 86.5l77 436h71l-78 -444q-8 -44 -26.5 -93.5t-53 -91.5t-88.5 -69.5t-133 -27.5z
M292 908h88l100 -144h-56z" />
    <glyph glyph-name="Uacute" unicode="&#xda;" horiz-adv-x="710" 
d="M311 -18q-64 0 -108.5 19t-72.5 49.5t-40.5 69t-12.5 77.5q0 35 6 67l78 444h71l-77 -436q-6 -32 -6 -61q0 -34 8.5 -64t28 -53t51 -36.5t78.5 -13.5q56 0 95.5 18.5t66 50t42 73t23.5 86.5l77 436h71l-78 -444q-8 -44 -26.5 -93.5t-53 -91.5t-88.5 -69.5t-133 -27.5z
M438 764h-56l126 144h88z" />
    <glyph glyph-name="Ucircumflex" unicode="&#xdb;" horiz-adv-x="710" 
d="M311 -18q-64 0 -108.5 19t-72.5 49.5t-40.5 69t-12.5 77.5q0 35 6 67l78 444h71l-77 -436q-6 -32 -6 -61q0 -34 8.5 -64t28 -53t51 -36.5t78.5 -13.5q56 0 95.5 18.5t66 50t42 73t23.5 86.5l77 436h71l-78 -444q-8 -44 -26.5 -93.5t-53 -91.5t-88.5 -69.5t-133 -27.5z
M583 764h-63l-64 108l-102 -108h-69l135 144h80z" />
    <glyph glyph-name="Udieresis" unicode="&#xdc;" horiz-adv-x="710" 
d="M311 -18q-64 0 -108.5 19t-72.5 49.5t-40.5 69t-12.5 77.5q0 35 6 67l78 444h71l-77 -436q-6 -32 -6 -61q0 -34 8.5 -64t28 -53t51 -36.5t78.5 -13.5q56 0 95.5 18.5t66 50t42 73t23.5 86.5l77 436h71l-78 -444q-8 -44 -26.5 -93.5t-53 -91.5t-88.5 -69.5t-133 -27.5z
M395 849q0 -20 -14 -35t-34 -15t-34 12.5t-14 34.5t15 36.5t35 14.5t33 -13t13 -35zM593 849q0 -20 -14.5 -35t-34.5 -15t-33.5 12.5t-13.5 34.5t14.5 36.5t34.5 14.5t33.5 -13t13.5 -35z" />
    <glyph glyph-name="Yacute" unicode="&#xdd;" horiz-adv-x="557" 
d="M247 0h-71l54 305l-180 403h84l141 -344l283 344h89l-346 -403zM369 764h-56l126 144h88z" />
    <glyph glyph-name="Thorn" unicode="&#xde;" 
d="M112 0h-71l125 708h71l-27 -155h118q104 0 161 -45t57 -125q0 -52 -20 -91t-55.5 -65.5t-85 -39.5t-108.5 -13h-134zM153 233h130q90 0 140.5 36t50.5 106q0 65 -41 91t-111 26h-123z" />
    <glyph glyph-name="germandbls" unicode="&#xdf;" horiz-adv-x="593" 
d="M96 0h-66l96 544q7 39 22 79t42.5 72t68 52.5t98.5 20.5q42 0 75.5 -12t57.5 -33.5t36.5 -51.5t12.5 -65q0 -66 -40 -111.5t-107 -62.5v-2q64 -13 101 -62t37 -117q0 -62 -21 -111t-57.5 -82.5t-87.5 -51.5t-111 -18q-12 0 -31.5 1.5t-30.5 3.5l10 57q9 -2 24.5 -3
t26.5 -1q37 0 74 10t66.5 34t48 62.5t18.5 95.5q0 67 -44.5 109t-121.5 42h-9l11 60h8q33 0 63 9t53 27t36.5 44t13.5 60q0 54 -31.5 81.5t-82.5 27.5q-43 0 -72 -16t-48 -40.5t-29 -54t-14 -55.5z" />
    <glyph glyph-name="agrave" unicode="&#xe0;" horiz-adv-x="534" 
d="M383 287q3 17 4 26.5t1 17.5q0 51 -29 72t-81 21q-42 0 -81 -16.5t-65 -39.5l-30 45q34 30 84 48.5t99 18.5q33 0 63.5 -7.5t53 -24t36 -42t13.5 -61.5q0 -9 -1 -24.5t-3 -25.5l-34 -190q-5 -27 -8 -56t-3 -49h-60q0 17 1.5 37t4.5 39h-2q-20 -23 -40 -39.5t-41.5 -26.5
t-46 -14.5t-53.5 -4.5q-24 0 -49 6t-45.5 20.5t-34 37.5t-13.5 57q0 56 32 90.5t83.5 53t115.5 25t129 6.5zM358 236q-45 0 -92 -4.5t-85.5 -17t-63 -35t-24.5 -59.5q0 -22 8 -36.5t21.5 -23t31 -12t35.5 -3.5q36 0 66 12t53 33t38 48.5t21 58.5l7 39h-16zM169 708h88
l100 -144h-56z" />
    <glyph glyph-name="aacute" unicode="&#xe1;" horiz-adv-x="534" 
d="M383 287q3 17 4 26.5t1 17.5q0 51 -29 72t-81 21q-42 0 -81 -16.5t-65 -39.5l-30 45q34 30 84 48.5t99 18.5q33 0 63.5 -7.5t53 -24t36 -42t13.5 -61.5q0 -9 -1 -24.5t-3 -25.5l-34 -190q-5 -27 -8 -56t-3 -49h-60q0 17 1.5 37t4.5 39h-2q-20 -23 -40 -39.5t-41.5 -26.5
t-46 -14.5t-53.5 -4.5q-24 0 -49 6t-45.5 20.5t-34 37.5t-13.5 57q0 56 32 90.5t83.5 53t115.5 25t129 6.5zM358 236q-45 0 -92 -4.5t-85.5 -17t-63 -35t-24.5 -59.5q0 -22 8 -36.5t21.5 -23t31 -12t35.5 -3.5q36 0 66 12t53 33t38 48.5t21 58.5l7 39h-16zM314 564h-56
l126 144h88z" />
    <glyph glyph-name="acircumflex" unicode="&#xe2;" horiz-adv-x="534" 
d="M383 287q3 17 4 26.5t1 17.5q0 51 -29 72t-81 21q-42 0 -81 -16.5t-65 -39.5l-30 45q34 30 84 48.5t99 18.5q33 0 63.5 -7.5t53 -24t36 -42t13.5 -61.5q0 -9 -1 -24.5t-3 -25.5l-34 -190q-5 -27 -8 -56t-3 -49h-60q0 17 1.5 37t4.5 39h-2q-20 -23 -40 -39.5t-41.5 -26.5
t-46 -14.5t-53.5 -4.5q-24 0 -49 6t-45.5 20.5t-34 37.5t-13.5 57q0 56 32 90.5t83.5 53t115.5 25t129 6.5zM358 236q-45 0 -92 -4.5t-85.5 -17t-63 -35t-24.5 -59.5q0 -22 8 -36.5t21.5 -23t31 -12t35.5 -3.5q36 0 66 12t53 33t38 48.5t21 58.5l7 39h-16zM462 564h-63
l-64 108l-102 -108h-69l135 144h80z" />
    <glyph glyph-name="atilde" unicode="&#xe3;" horiz-adv-x="534" 
d="M383 287q3 17 4 26.5t1 17.5q0 51 -29 72t-81 21q-42 0 -81 -16.5t-65 -39.5l-30 45q34 30 84 48.5t99 18.5q33 0 63.5 -7.5t53 -24t36 -42t13.5 -61.5q0 -9 -1 -24.5t-3 -25.5l-34 -190q-5 -27 -8 -56t-3 -49h-60q0 17 1.5 37t4.5 39h-2q-20 -23 -40 -39.5t-41.5 -26.5
t-46 -14.5t-53.5 -4.5q-24 0 -49 6t-45.5 20.5t-34 37.5t-13.5 57q0 56 32 90.5t83.5 53t115.5 25t129 6.5zM358 236q-45 0 -92 -4.5t-85.5 -17t-63 -35t-24.5 -59.5q0 -22 8 -36.5t21.5 -23t31 -12t35.5 -3.5q36 0 66 12t53 33t38 48.5t21 58.5l7 39h-16zM150 576
q7 19 16.5 38t23 33.5t30.5 23.5t40 9q18 0 35 -7t34 -16q17 -8 32.5 -15.5t30.5 -7.5q23 0 36.5 15.5t21.5 34.5h43q-7 -20 -17 -38.5t-23.5 -33t-31 -23.5t-39.5 -9q-18 0 -35 7.5t-34 15.5q-16 9 -31.5 16t-31.5 7q-23 0 -36 -15.5t-21 -34.5h-43z" />
    <glyph glyph-name="adieresis" unicode="&#xe4;" horiz-adv-x="534" 
d="M383 287q3 17 4 26.5t1 17.5q0 51 -29 72t-81 21q-42 0 -81 -16.5t-65 -39.5l-30 45q34 30 84 48.5t99 18.5q33 0 63.5 -7.5t53 -24t36 -42t13.5 -61.5q0 -9 -1 -24.5t-3 -25.5l-34 -190q-5 -27 -8 -56t-3 -49h-60q0 17 1.5 37t4.5 39h-2q-20 -23 -40 -39.5t-41.5 -26.5
t-46 -14.5t-53.5 -4.5q-24 0 -49 6t-45.5 20.5t-34 37.5t-13.5 57q0 56 32 90.5t83.5 53t115.5 25t129 6.5zM358 236q-45 0 -92 -4.5t-85.5 -17t-63 -35t-24.5 -59.5q0 -22 8 -36.5t21.5 -23t31 -12t35.5 -3.5q36 0 66 12t53 33t38 48.5t21 58.5l7 39h-16zM273 649
q0 -20 -14 -35t-34 -15t-34 12.5t-14 34.5t15 36.5t35 14.5t33 -13t13 -35zM471 649q0 -20 -14.5 -35t-34.5 -15t-33.5 12.5t-13.5 34.5t14.5 36.5t34.5 14.5t33.5 -13t13.5 -35z" />
    <glyph glyph-name="aring" unicode="&#xe5;" horiz-adv-x="534" 
d="M383 287q3 17 4 26.5t1 17.5q0 51 -29 72t-81 21q-42 0 -81 -16.5t-65 -39.5l-30 45q34 30 84 48.5t99 18.5q33 0 63.5 -7.5t53 -24t36 -42t13.5 -61.5q0 -9 -1 -24.5t-3 -25.5l-34 -190q-5 -27 -8 -56t-3 -49h-60q0 17 1.5 37t4.5 39h-2q-20 -23 -40 -39.5t-41.5 -26.5
t-46 -14.5t-53.5 -4.5q-24 0 -49 6t-45.5 20.5t-34 37.5t-13.5 57q0 56 32 90.5t83.5 53t115.5 25t129 6.5zM358 236q-45 0 -92 -4.5t-85.5 -17t-63 -35t-24.5 -59.5q0 -22 8 -36.5t21.5 -23t31 -12t35.5 -3.5q36 0 66 12t53 33t38 48.5t21 58.5l7 39h-16zM314 554
q-38 0 -61.5 22t-23.5 57q0 23 8 43.5t22.5 36t34 24.5t43.5 9q38 0 61.5 -22t23.5 -57q0 -47 -30 -80t-78 -33zM388 665q0 22 -14 37t-39 15q-31 0 -51 -24t-20 -57q0 -23 14 -37.5t38 -14.5q32 0 52 24t20 57z" />
    <glyph glyph-name="ae" unicode="&#xe6;" horiz-adv-x="884" 
d="M442 389q13 19 33.5 35.5t45 29t50.5 19.5t52 7q96 0 145.5 -51t49.5 -132q0 -12 -2 -36.5t-7 -44.5h-377q-1 -6 -1.5 -11.5t-0.5 -10.5q0 -33 10 -60t28.5 -47t44.5 -31t58 -11q55 0 96 24.5t66 57.5l42 -40q-41 -49 -95 -74t-115 -25q-31 0 -59 9t-51.5 25t-40 37.5
t-25.5 46.5q-29 -53 -80.5 -84t-128.5 -31q-28 0 -56 6t-50.5 20.5t-36.5 37.5t-14 57q0 52 31.5 82.5t81.5 46.5t113.5 20.5t128.5 4.5q4 17 7 37t3 28q0 51 -29 72t-81 21q-42 0 -81 -16.5t-65 -39.5l-30 45q34 30 84 48.5t99 18.5q54 0 97 -21.5t60 -69.5zM354 216
q-51 0 -98.5 -4t-83.5 -14.5t-57.5 -29t-21.5 -48.5q0 -22 8 -36.5t21.5 -23t31 -12t35.5 -3.5q36 0 66.5 11.5t53.5 32t38 48t20 60.5l3 19h-16zM749 266q1 8 1.5 17.5t0.5 17.5q0 54 -33 88.5t-97 34.5q-35 0 -64.5 -12.5t-53 -34.5t-39.5 -50.5t-23 -60.5h308z" />
    <glyph glyph-name="ccedilla" unicode="&#xe7;" horiz-adv-x="500" 
d="M426 362q-12 27 -41.5 44.5t-67.5 17.5q-45 0 -83 -18t-65.5 -49.5t-43 -73t-15.5 -88.5q0 -32 10 -59.5t29.5 -47.5t47.5 -31.5t64 -11.5q45 0 79 17t59 44l43 -37q-35 -35 -77.5 -57t-98.5 -24l-50 -63q8 2 15.5 3t15.5 1q12 0 25.5 -3.5t24 -11.5t17.5 -20.5t7 -31.5
q0 -26 -11.5 -43.5t-29.5 -28t-39 -15.5t-40 -5q-20 0 -48.5 5t-48.5 15l19 36q16 -8 35.5 -11t38.5 -3q11 0 22.5 2t21.5 7.5t16 14t6 21.5q0 20 -14.5 29t-35.5 9q-22 0 -44 -8l-15 15l70 88q-43 4 -77 20t-58 42t-37 61t-13 76q0 60 20 113t56.5 92.5t88.5 62.5t115 23
q52 0 97.5 -19t68.5 -60z" />
    <glyph glyph-name="egrave" unicode="&#xe8;" horiz-adv-x="566" 
d="M104 216q-1 -6 -1.5 -11.5t-0.5 -10.5q0 -33 11.5 -60t32 -47t48 -31t59.5 -11q55 0 96 24.5t66 57.5l42 -40q-41 -49 -95 -74t-115 -25q-45 0 -84 14t-67.5 40t-45 64.5t-16.5 87.5q0 57 21 109t57.5 91t86 62.5t106.5 23.5q96 0 145.5 -51t49.5 -132q0 -12 -2 -36.5
t-7 -44.5h-387zM431 266q1 8 1.5 17.5t0.5 17.5q0 54 -33 88.5t-97 34.5q-37 0 -68.5 -12.5t-56 -34.5t-41.5 -50.5t-24 -60.5h318zM173 708h88l100 -144h-56z" />
    <glyph glyph-name="eacute" unicode="&#xe9;" horiz-adv-x="566" 
d="M104 216q-1 -6 -1.5 -11.5t-0.5 -10.5q0 -33 11.5 -60t32 -47t48 -31t59.5 -11q55 0 96 24.5t66 57.5l42 -40q-41 -49 -95 -74t-115 -25q-45 0 -84 14t-67.5 40t-45 64.5t-16.5 87.5q0 57 21 109t57.5 91t86 62.5t106.5 23.5q96 0 145.5 -51t49.5 -132q0 -12 -2 -36.5
t-7 -44.5h-387zM431 266q1 8 1.5 17.5t0.5 17.5q0 54 -33 88.5t-97 34.5q-37 0 -68.5 -12.5t-56 -34.5t-41.5 -50.5t-24 -60.5h318zM324 564h-56l126 144h88z" />
    <glyph glyph-name="ecircumflex" unicode="&#xea;" horiz-adv-x="566" 
d="M104 216q-1 -6 -1.5 -11.5t-0.5 -10.5q0 -33 11.5 -60t32 -47t48 -31t59.5 -11q55 0 96 24.5t66 57.5l42 -40q-41 -49 -95 -74t-115 -25q-45 0 -84 14t-67.5 40t-45 64.5t-16.5 87.5q0 57 21 109t57.5 91t86 62.5t106.5 23.5q96 0 145.5 -51t49.5 -132q0 -12 -2 -36.5
t-7 -44.5h-387zM431 266q1 8 1.5 17.5t0.5 17.5q0 54 -33 88.5t-97 34.5q-37 0 -68.5 -12.5t-56 -34.5t-41.5 -50.5t-24 -60.5h318zM483 564h-63l-64 108l-102 -108h-69l135 144h80z" />
    <glyph glyph-name="edieresis" unicode="&#xeb;" horiz-adv-x="566" 
d="M104 216q-1 -6 -1.5 -11.5t-0.5 -10.5q0 -33 11.5 -60t32 -47t48 -31t59.5 -11q55 0 96 24.5t66 57.5l42 -40q-41 -49 -95 -74t-115 -25q-45 0 -84 14t-67.5 40t-45 64.5t-16.5 87.5q0 57 21 109t57.5 91t86 62.5t106.5 23.5q96 0 145.5 -51t49.5 -132q0 -12 -2 -36.5
t-7 -44.5h-387zM431 266q1 8 1.5 17.5t0.5 17.5q0 54 -33 88.5t-97 34.5q-37 0 -68.5 -12.5t-56 -34.5t-41.5 -50.5t-24 -60.5h318zM292 649q0 -20 -14 -35t-34 -15t-34 12.5t-14 34.5t15 36.5t35 14.5t33 -13t13 -35zM490 649q0 -20 -14.5 -35t-34.5 -15t-33.5 12.5
t-13.5 34.5t14.5 36.5t34.5 14.5t33.5 -13t13.5 -35z" />
    <glyph glyph-name="igrave" unicode="&#xec;" horiz-adv-x="250" 
d="M104 0h-67l83 468h67zM21 708h88l100 -144h-56z" />
    <glyph glyph-name="iacute" unicode="&#xed;" horiz-adv-x="250" 
d="M104 0h-67l83 468h67zM188 564h-56l126 144h88z" />
    <glyph glyph-name="icircumflex" unicode="&#xee;" horiz-adv-x="250" 
d="M104 0h-67l83 468h67zM319 564h-63l-64 108l-102 -108h-69l135 144h80z" />
    <glyph glyph-name="idieresis" unicode="&#xef;" horiz-adv-x="250" 
d="M104 0h-67l83 468h67zM129 649q0 -20 -14 -35t-34 -15t-34 12.5t-14 34.5t15 36.5t35 14.5t33 -13t13 -35zM327 649q0 -20 -14.5 -35t-34.5 -15t-33.5 12.5t-13.5 34.5t14.5 36.5t34.5 14.5t33.5 -13t13.5 -35z" />
    <glyph glyph-name="eth" unicode="&#xf0;" horiz-adv-x="596" 
d="M321 480q48 0 81 -14t64 -44l3 2q-17 57 -48.5 110.5t-72.5 95.5l-122 -57l-30 36l120 56q-20 23 -43.5 42t-42.5 34l61 37q23 -20 45 -40.5t41 -41.5l111 53l34 -35l-113 -54q61 -67 96.5 -153t35.5 -182q0 -60 -14.5 -120t-48 -108.5t-87.5 -78.5t-132 -30
q-47 0 -87 15t-68.5 41.5t-44.5 64t-16 82.5q0 59 20.5 111.5t57.5 92t88 62.5t112 23zM467 274q0 32 -10 59.5t-29.5 47.5t-47.5 31.5t-63 11.5q-44 0 -81 -18.5t-64 -50t-42.5 -73t-15.5 -87.5q0 -32 10 -59.5t29.5 -47.5t47 -31.5t62.5 -11.5q45 0 82.5 18.5t64.5 49.5
t42 72.5t15 88.5z" />
    <glyph glyph-name="ntilde" unicode="&#xf1;" horiz-adv-x="577" 
d="M180 468q-2 -19 -5 -42t-6 -38h2q27 43 69.5 67.5t90.5 24.5q76 0 118.5 -38.5t42.5 -104.5q0 -12 -1.5 -24t-3.5 -26l-51 -287h-67l46 259q6 31 6 59q0 49 -23 77.5t-81 28.5q-27 0 -54 -11t-50.5 -34t-41.5 -57.5t-26 -81.5l-42 -240h-67l64 365q4 19 8.5 49t6.5 54h65
zM168 576q7 19 16.5 38t23 33.5t30.5 23.5t40 9q18 0 35 -7t34 -16q17 -8 32.5 -15.5t30.5 -7.5q23 0 36.5 15.5t21.5 34.5h43q-7 -20 -17 -38.5t-23.5 -33t-31 -23.5t-39.5 -9q-18 0 -35 7.5t-34 15.5q-16 9 -31.5 16t-31.5 7q-23 0 -36 -15.5t-21 -34.5h-43z" />
    <glyph glyph-name="ograve" unicode="&#xf2;" horiz-adv-x="596" 
d="M250 -12q-47 0 -87 15t-68.5 41.5t-44.5 64t-16 82.5q0 59 20.5 111.5t57.5 92t88 62.5t112 23q48 0 87.5 -14.5t68 -41.5t44.5 -64t16 -82q0 -60 -20.5 -113t-57.5 -92t-88 -62t-112 -23zM458 274q0 32 -10 59.5t-29.5 47.5t-47.5 31.5t-63 11.5q-44 0 -81 -18.5
t-64 -50t-42.5 -73t-15.5 -87.5q0 -32 10 -59.5t29.5 -47.5t47 -31.5t62.5 -11.5q45 0 82.5 18.5t64.5 49.5t42 72.5t15 88.5zM185 708h88l100 -144h-56z" />
    <glyph glyph-name="oacute" unicode="&#xf3;" horiz-adv-x="596" 
d="M250 -12q-47 0 -87 15t-68.5 41.5t-44.5 64t-16 82.5q0 59 20.5 111.5t57.5 92t88 62.5t112 23q48 0 87.5 -14.5t68 -41.5t44.5 -64t16 -82q0 -60 -20.5 -113t-57.5 -92t-88 -62t-112 -23zM458 274q0 32 -10 59.5t-29.5 47.5t-47.5 31.5t-63 11.5q-44 0 -81 -18.5
t-64 -50t-42.5 -73t-15.5 -87.5q0 -32 10 -59.5t29.5 -47.5t47 -31.5t62.5 -11.5q45 0 82.5 18.5t64.5 49.5t42 72.5t15 88.5zM338 564h-56l126 144h88z" />
    <glyph glyph-name="ocircumflex" unicode="&#xf4;" horiz-adv-x="596" 
d="M250 -12q-47 0 -87 15t-68.5 41.5t-44.5 64t-16 82.5q0 59 20.5 111.5t57.5 92t88 62.5t112 23q48 0 87.5 -14.5t68 -41.5t44.5 -64t16 -82q0 -60 -20.5 -113t-57.5 -92t-88 -62t-112 -23zM458 274q0 32 -10 59.5t-29.5 47.5t-47.5 31.5t-63 11.5q-44 0 -81 -18.5
t-64 -50t-42.5 -73t-15.5 -87.5q0 -32 10 -59.5t29.5 -47.5t47 -31.5t62.5 -11.5q45 0 82.5 18.5t64.5 49.5t42 72.5t15 88.5zM493 564h-63l-64 108l-102 -108h-69l135 144h80z" />
    <glyph glyph-name="otilde" unicode="&#xf5;" horiz-adv-x="596" 
d="M250 -12q-47 0 -87 15t-68.5 41.5t-44.5 64t-16 82.5q0 59 20.5 111.5t57.5 92t88 62.5t112 23q48 0 87.5 -14.5t68 -41.5t44.5 -64t16 -82q0 -60 -20.5 -113t-57.5 -92t-88 -62t-112 -23zM458 274q0 32 -10 59.5t-29.5 47.5t-47.5 31.5t-63 11.5q-44 0 -81 -18.5
t-64 -50t-42.5 -73t-15.5 -87.5q0 -32 10 -59.5t29.5 -47.5t47 -31.5t62.5 -11.5q45 0 82.5 18.5t64.5 49.5t42 72.5t15 88.5zM174 576q7 19 16.5 38t23 33.5t30.5 23.5t40 9q18 0 35 -7t34 -16q17 -8 32.5 -15.5t30.5 -7.5q23 0 36.5 15.5t21.5 34.5h43q-7 -20 -17 -38.5
t-23.5 -33t-31 -23.5t-39.5 -9q-18 0 -35 7.5t-34 15.5q-16 9 -31.5 16t-31.5 7q-23 0 -36 -15.5t-21 -34.5h-43z" />
    <glyph glyph-name="odieresis" unicode="&#xf6;" horiz-adv-x="596" 
d="M250 -12q-47 0 -87 15t-68.5 41.5t-44.5 64t-16 82.5q0 59 20.5 111.5t57.5 92t88 62.5t112 23q48 0 87.5 -14.5t68 -41.5t44.5 -64t16 -82q0 -60 -20.5 -113t-57.5 -92t-88 -62t-112 -23zM458 274q0 32 -10 59.5t-29.5 47.5t-47.5 31.5t-63 11.5q-44 0 -81 -18.5
t-64 -50t-42.5 -73t-15.5 -87.5q0 -32 10 -59.5t29.5 -47.5t47 -31.5t62.5 -11.5q45 0 82.5 18.5t64.5 49.5t42 72.5t15 88.5zM297 649q0 -20 -14 -35t-34 -15t-34 12.5t-14 34.5t15 36.5t35 14.5t33 -13t13 -35zM495 649q0 -20 -14.5 -35t-34.5 -15t-33.5 12.5t-13.5 34.5
t14.5 36.5t34.5 14.5t33.5 -13t13.5 -35z" />
    <glyph glyph-name="divide" unicode="&#xf7;" horiz-adv-x="666" 
d="M588 273h-510v60h510v-60zM387 465q0 -21 -15 -37.5t-39 -16.5t-39 16.5t-15 37.5t15 37.5t39 16.5t39 -16.5t15 -37.5zM387 141q0 -21 -15 -37.5t-39 -16.5t-39 16.5t-15 37.5t15 37.5t39 16.5t39 -16.5t15 -37.5z" />
    <glyph glyph-name="oslash" unicode="&#xf8;" horiz-adv-x="596" 
d="M491 397q37 -49 37 -119q0 -60 -20.5 -113t-57.5 -92t-88 -62t-112 -23q-92 0 -151 53l-79 -69l-25 31l77 67q-18 24 -28 55t-10 66q0 59 20.5 111.5t57.5 92t88 62.5t112 23q47 0 85.5 -13.5t67.5 -39.5l77 69l26 -31l-77 -68v0zM146 87q19 -20 46 -31t62 -11
q45 0 82.5 18.5t64.5 49.5t42 72.5t15 88.5q0 43 -18 76zM416 383q-20 20 -46.5 30.5t-61.5 10.5q-44 0 -81 -18.5t-64 -50t-42.5 -73t-15.5 -87.5q0 -44 18 -77l293 265v0z" />
    <glyph glyph-name="ugrave" unicode="&#xf9;" horiz-adv-x="577" 
d="M364 0q2 19 5 42t6 38h-2q-27 -43 -69.5 -67.5t-90.5 -24.5q-76 0 -118.5 38.5t-42.5 104.5q0 12 1.5 24t3.5 26l51 287h67l-46 -259q-6 -32 -6 -59q0 -49 23 -77t81 -28q27 0 54 11t50.5 33.5t41.5 57t26 81.5l42 240h67l-64 -365q-4 -19 -8.5 -49t-6.5 -54h-65z
M160 708h88l100 -144h-56z" />
    <glyph glyph-name="uacute" unicode="&#xfa;" horiz-adv-x="577" 
d="M364 0q2 19 5 42t6 38h-2q-27 -43 -69.5 -67.5t-90.5 -24.5q-76 0 -118.5 38.5t-42.5 104.5q0 12 1.5 24t3.5 26l51 287h67l-46 -259q-6 -32 -6 -59q0 -49 23 -77t81 -28q27 0 54 11t50.5 33.5t41.5 57t26 81.5l42 240h67l-64 -365q-4 -19 -8.5 -49t-6.5 -54h-65z
M331 564h-56l126 144h88z" />
    <glyph glyph-name="ucircumflex" unicode="&#xfb;" horiz-adv-x="577" 
d="M364 0q2 19 5 42t6 38h-2q-27 -43 -69.5 -67.5t-90.5 -24.5q-76 0 -118.5 38.5t-42.5 104.5q0 12 1.5 24t3.5 26l51 287h67l-46 -259q-6 -32 -6 -59q0 -49 23 -77t81 -28q27 0 54 11t50.5 33.5t41.5 57t26 81.5l42 240h67l-64 -365q-4 -19 -8.5 -49t-6.5 -54h-65z
M478 564h-63l-64 108l-102 -108h-69l135 144h80z" />
    <glyph glyph-name="udieresis" unicode="&#xfc;" horiz-adv-x="577" 
d="M364 0q2 19 5 42t6 38h-2q-27 -43 -69.5 -67.5t-90.5 -24.5q-76 0 -118.5 38.5t-42.5 104.5q0 12 1.5 24t3.5 26l51 287h67l-46 -259q-6 -32 -6 -59q0 -49 23 -77t81 -28q27 0 54 11t50.5 33.5t41.5 57t26 81.5l42 240h67l-64 -365q-4 -19 -8.5 -49t-6.5 -54h-65z
M286 649q0 -20 -14 -35t-34 -15t-34 12.5t-14 34.5t15 36.5t35 14.5t33 -13t13 -35zM484 649q0 -20 -14.5 -35t-34.5 -15t-33.5 12.5t-13.5 34.5t14.5 36.5t34.5 14.5t33.5 -13t13.5 -35z" />
    <glyph glyph-name="yacute" unicode="&#xfd;" horiz-adv-x="483" 
d="M189 74h2l228 394h75l-354 -589q-33 -54 -68 -86.5t-87 -32.5q-29 0 -57 6l10 62q22 -8 44 -8q32 0 55.5 21.5t46.5 61.5l58 98l-98 467h70zM295 564h-56l126 144h88z" />
    <glyph glyph-name="thorn" unicode="&#xfe;" horiz-adv-x="628" 
d="M177 392q11 18 29 34t40.5 28t48.5 19t54 7q48 0 86.5 -14.5t66.5 -41.5t43 -64t15 -82q0 -60 -21 -113t-57.5 -92t-87 -62t-109.5 -23q-51 0 -95.5 23t-67.5 68h-2l-57 -319h-67l175 996h67l-63 -364h2v0zM490 274q0 31 -9.5 58.5t-28.5 48t-46 32t-63 11.5
q-44 0 -82 -18t-66 -49.5t-44 -73t-16 -87.5q0 -33 10.5 -60.5t30.5 -48t47.5 -31.5t62.5 -11q46 0 83.5 18t64.5 49t41.5 72.5t14.5 89.5z" />
    <glyph glyph-name="ydieresis" unicode="&#xff;" horiz-adv-x="483" 
d="M189 74h2l228 394h75l-354 -589q-33 -54 -68 -86.5t-87 -32.5q-29 0 -57 6l10 62q22 -8 44 -8q32 0 55.5 21.5t46.5 61.5l58 98l-98 467h70zM239 649q0 -20 -14 -35t-34 -15t-34 12.5t-14 34.5t15 36.5t35 14.5t33 -13t13 -35zM437 649q0 -20 -14.5 -35t-34.5 -15
t-33.5 12.5t-13.5 34.5t14.5 36.5t34.5 14.5t33.5 -13t13.5 -35z" />
    <glyph glyph-name="dotlessi" unicode="&#x131;" horiz-adv-x="250" 
d="M104 0h-67l83 468h67z" />
    <glyph glyph-name="OE" unicode="&#x152;" horiz-adv-x="970" 
d="M388 0q-60 0 -119 16.5t-106 52t-76 91.5t-29 136q0 93 32.5 169t90.5 130t137 83.5t172 29.5h490l-11 -63h-328l-43 -246h312l-11 -61h-312l-49 -275h354l-11 -63h-493zM570 645h-85q-86 0 -152 -29t-110 -76.5t-66.5 -109t-22.5 -126.5q0 -50 16 -93.5t49 -76.5t84 -52
t121 -19h63z" />
    <glyph glyph-name="oe" unicode="&#x153;" horiz-adv-x="982" 
d="M473 107q-16 -25 -37.5 -46.5t-49 -37.5t-61.5 -25.5t-75 -9.5q-47 0 -87 15t-68.5 41.5t-44.5 64t-16 82.5q0 59 20.5 111.5t57.5 92t88 62.5t112 23q69 0 120 -33t74 -87q16 27 39 49t51 38t60 24.5t65 8.5q96 0 145.5 -51t49.5 -132q0 -12 -2 -36.5t-7 -44.5h-387
q-1 -6 -1.5 -11.5t-0.5 -10.5q0 -33 11.5 -60t32 -47t48 -31t59.5 -11q55 0 96 24.5t66 57.5l42 -40q-41 -49 -95 -74t-115 -25q-39 0 -69.5 9.5t-53.5 25.5t-40 38t-27 46zM458 274q0 32 -10 59.5t-29.5 47.5t-47.5 31.5t-63 11.5q-44 0 -81 -18.5t-64 -50t-42.5 -73
t-15.5 -87.5q0 -32 10 -59.5t29.5 -47.5t47 -31.5t62.5 -11.5q45 0 82.5 18.5t64.5 49.5t42 72.5t15 88.5zM847 266q1 8 1.5 17.5t0.5 17.5q0 54 -33 88.5t-97 34.5q-37 0 -68.5 -12.5t-56 -34.5t-41.5 -50.5t-24 -60.5h318z" />
    <glyph glyph-name="Scaron" unicode="&#x160;" horiz-adv-x="564" 
d="M491 598q-19 28 -55 47t-84 19q-31 0 -62 -8.5t-56 -26t-40.5 -44t-15.5 -63.5q0 -28 10 -48t27.5 -35t41 -26t50.5 -21q31 -12 63 -27t58 -37t42 -51.5t16 -69.5q0 -36 -13 -75.5t-43 -73t-79 -55t-121 -21.5q-65 0 -125 26.5t-92 78.5l64 41q20 -35 60 -59.5t96 -24.5
q36 0 68.5 10.5t57 30t38.5 47.5t14 62q0 30 -12 52t-32.5 38t-47 28t-56.5 23t-59 26t-51 36t-35.5 49.5t-13.5 66.5q0 45 17 84t49 67.5t79 45t107 16.5q72 0 122.5 -23.5t73.5 -60.5zM396 764h-80l-83 144h63l64 -108l102 108h69z" />
    <glyph glyph-name="scaron" unicode="&#x161;" horiz-adv-x="444" 
d="M354 365q-14 26 -42 42.5t-67 16.5q-18 0 -37.5 -4t-36 -13t-27 -23.5t-10.5 -35.5q0 -19 6.5 -31t18.5 -20.5t29 -15t39 -12.5q69 -20 105 -50.5t36 -86.5q0 -38 -17 -65.5t-43 -45t-58 -25.5t-63 -8q-59 0 -110.5 22t-80.5 67l58 38q17 -29 51 -49.5t79 -20.5
q22 0 43 4.5t37.5 14t26.5 25t10 36.5q0 37 -29.5 56.5t-84.5 37.5q-21 7 -42 16t-38 23.5t-27.5 35t-10.5 49.5q0 36 16.5 62t42 42.5t57.5 24.5t64 8q54 0 96.5 -21t61.5 -56zM307 564h-80l-83 144h63l64 -108l102 108h69z" />
    <glyph glyph-name="Ydieresis" unicode="&#x178;" horiz-adv-x="557" 
d="M247 0h-71l54 305l-180 403h84l141 -344l283 344h89l-346 -403zM308 849q0 -20 -14 -35t-34 -15t-34 12.5t-14 34.5t15 36.5t35 14.5t33 -13t13 -35zM506 849q0 -20 -14.5 -35t-34.5 -15t-33.5 12.5t-13.5 34.5t14.5 36.5t34.5 14.5t33.5 -13t13.5 -35z" />
    <glyph glyph-name="Zcaron" unicode="&#x17d;" horiz-adv-x="572" 
d="M597 648l-518 -585h419l-11 -63h-512l11 60l519 585h-398l11 63h490zM401 764h-80l-83 144h63l64 -108l102 108h69z" />
    <glyph glyph-name="zcaron" unicode="&#x17e;" horiz-adv-x="442" 
d="M421 420l-344 -361h290l-10 -59h-380l8 48l343 363h-265l11 57h356zM300 564h-80l-83 144h63l64 -108l102 108h69z" />
    <glyph glyph-name="florin" unicode="&#x192;" 
d="M433 365h-119l-129 -352q-10 -27 -24.5 -54t-36 -49t-51.5 -35.5t-70 -13.5q-22 0 -42 5.5t-35 18.5l40 48q11 -6 24 -9t26 -3q23 0 40 9.5t29 24.5t20.5 34t15.5 38l122 338h-108l10 54h119l52 144q11 31 26.5 59t37 50t50 35t66.5 13q52 0 90 -29l-43 -48
q-11 8 -25 12.5t-29 4.5q-25 0 -43 -12t-31.5 -30t-22 -38t-13.5 -36l-44 -125h108z" />
    <glyph glyph-name="circumflex" unicode="&#x2c6;" horiz-adv-x="240" 
d="M314 564h-63l-64 108l-102 -108h-69l135 144h80z" />
    <glyph glyph-name="caron" unicode="&#x2c7;" horiz-adv-x="240" 
d="M205 564h-80l-83 144h63l64 -108l102 108h69z" />
    <glyph glyph-name="ring" unicode="&#x2da;" horiz-adv-x="240" 
d="M170 554q-38 0 -61.5 22t-23.5 57q0 23 8 43.5t22.5 36t34 24.5t43.5 9q38 0 61.5 -22t23.5 -57q0 -47 -30 -80t-78 -33zM244 665q0 22 -14 37t-39 15q-31 0 -51 -24t-20 -57q0 -23 14 -37.5t38 -14.5q32 0 52 24t20 57z" />
    <glyph glyph-name="tilde" unicode="&#x2dc;" horiz-adv-x="240" 
d="M6 576q7 19 16.5 38t23 33.5t30.5 23.5t40 9q18 0 35 -7t34 -16q17 -8 32.5 -15.5t30.5 -7.5q23 0 36.5 15.5t21.5 34.5h43q-7 -20 -17 -38.5t-23.5 -33t-31 -23.5t-39.5 -9q-18 0 -35 7.5t-34 15.5q-16 9 -31.5 16t-31.5 7q-23 0 -36 -15.5t-21 -34.5h-43z" />
    <glyph glyph-name="endash" unicode="&#x2013;" horiz-adv-x="400" 
d="M360 214h-340l10 57h340z" />
    <glyph glyph-name="emdash" unicode="&#x2014;" horiz-adv-x="600" 
d="M560 214h-540l10 57h540z" />
    <glyph glyph-name="quoteleft" unicode="&#x2018;" horiz-adv-x="222" 
d="M194 708h57l-109 -235h-71z" />
    <glyph glyph-name="quoteright" unicode="&#x2019;" horiz-adv-x="222" 
d="M128 473h-57l109 235h71z" />
    <glyph glyph-name="quotesinglbase" unicode="&#x201a;" horiz-adv-x="222" 
d="M20 -140h-57l109 235h71z" />
    <glyph glyph-name="quotedblleft" unicode="&#x201c;" horiz-adv-x="387" 
d="M194 708h57l-109 -235h-71zM359 708h57l-109 -235h-71z" />
    <glyph glyph-name="quotedblright" unicode="&#x201d;" horiz-adv-x="387" 
d="M293 473h-57l109 235h71zM128 473h-57l109 235h71z" />
    <glyph glyph-name="quotedblbase" unicode="&#x201e;" horiz-adv-x="387" 
d="M185 -140h-57l109 235h71zM20 -140h-57l109 235h71z" />
    <glyph glyph-name="dagger" unicode="&#x2020;" horiz-adv-x="556" 
d="M346 504h204l-11 -60h-204l-100 -570h-66l100 570h-204l11 60h204l36 204h66z" />
    <glyph glyph-name="daggerdbl" unicode="&#x2021;" horiz-adv-x="556" 
d="M348 516h195l-11 -60h-195l-58 -330h195l-10 -60h-195l-34 -192h-66l34 192h-195l10 60h195l58 330h-195l11 60h195l34 192h66z" />
    <glyph glyph-name="bullet" unicode="&#x2022;" horiz-adv-x="500" 
d="M73 354q0 37 14 69t38 56t56 38t69 14t69 -14t56 -38t38 -56t14 -69t-14 -69t-38 -56t-56 -38t-69 -14t-69 14t-56 38t-38 56t-14 69z" />
    <glyph glyph-name="ellipsis" unicode="&#x2026;" horiz-adv-x="1000" 
d="M174 49q0 -22 -15.5 -38.5t-38.5 -16.5q-22 0 -37.5 14t-15.5 38t16.5 40t38.5 16t37 -14t15 -39zM508 49q0 -22 -15.5 -38.5t-38.5 -16.5q-22 0 -37.5 14t-15.5 38t16.5 40t38.5 16t37 -14t15 -39zM842 49q0 -22 -15.5 -38.5t-38.5 -16.5q-22 0 -37.5 14t-15.5 38
t16.5 40t38.5 16t37 -14t15 -39z" />
    <glyph glyph-name="perthousand" unicode="&#x2030;" horiz-adv-x="1000" 
d="M203 412q-30 0 -55 9.5t-43.5 26t-28.5 39.5t-10 51q0 37 13 70t36 58t55.5 39.5t70.5 14.5q60 0 97.5 -34.5t37.5 -90.5q0 -38 -13 -71.5t-36 -58t-54.5 -39t-69.5 -14.5zM318 588q0 35 -21.5 58t-60.5 23q-24 0 -44 -10t-34.5 -26.5t-23 -39.5t-8.5 -48q0 -35 21.5 -58
t58.5 -23q25 0 45.5 10t35.5 27t23 39.5t8 47.5zM63 -31l-45 27l582 743l44 -27zM423 -12q-30 0 -55 9.5t-43.5 26t-28.5 39.5t-10 51q0 37 13 70t36 58t55.5 39.5t70.5 14.5q60 0 97.5 -34.5t37.5 -90.5q0 -38 -13 -71.5t-36 -58t-54.5 -39t-69.5 -14.5zM538 164
q0 35 -21.5 58t-60.5 23q-24 0 -44 -10t-34.5 -26.5t-23 -39.5t-8.5 -48q0 -35 21.5 -58t58.5 -23q25 0 45.5 10t35.5 27t23 39.5t8 47.5zM776 -12q-30 0 -55 9.5t-43.5 26t-28.5 39.5t-10 51q0 37 13 70t36 58t55.5 39.5t70.5 14.5q60 0 97.5 -34.5t37.5 -90.5
q0 -38 -13 -71.5t-36 -58t-54.5 -39t-69.5 -14.5zM891 164q0 35 -21.5 58t-60.5 23q-24 0 -44 -10t-34.5 -26.5t-23 -39.5t-8.5 -48q0 -35 21.5 -58t58.5 -23q25 0 45.5 10t35.5 27t23 39.5t8 47.5z" />
    <glyph glyph-name="guilsinglleft" unicode="&#x2039;" horiz-adv-x="315" 
d="M202 64l-50 -33l-106 209l177 209l41 -37l-147 -177z" />
    <glyph glyph-name="guilsinglright" unicode="&#x203a;" horiz-adv-x="315" 
d="M92 416l50 33l106 -209l-177 -209l-41 37l147 177z" />
    <glyph glyph-name="Euro" unicode="&#x20ac;" 
d="M559 633q-23 15 -54 22.5t-62 7.5q-45 0 -84 -16t-70.5 -43t-56 -62t-40.5 -73h300l-28 -55h-292q-5 -12 -9 -28.5t-7 -33t-5 -32.5t-2 -28h257l-27 -55h-231q0 -44 13.5 -79t39 -60.5t62 -39t82.5 -13.5q35 0 68.5 9.5t67.5 30.5l19 -56q-74 -47 -169 -47
q-63 0 -111 21.5t-80 57t-48 81.5t-16 95h-76l29 55h49q0 9 2 23t5 30.5t7 34.5t9 34h-69l30 55h57q21 55 54.5 102.5t76.5 81.5t94 53.5t107 19.5q42 0 79.5 -8.5t63.5 -23.5l-35 -61v0z" />
    <glyph glyph-name="trademark" unicode="&#x2122;" horiz-adv-x="1000" 
d="M459 654h-133v-358h-60v358h-136v54h329v-54zM986 296h-60v346h-2l-139 -346h-39l-139 346h-2v-346h-60v412h93l129 -316l129 316h90v-412z" />
    <glyph glyph-name="uniE300" unicode="&#xe300;" horiz-adv-x="240" 
d="M23 908h88l100 -144h-56z" />
    <glyph glyph-name="uniE301" unicode="&#xe301;" horiz-adv-x="240" 
d="M160 764h-56l126 144h88z" />
    <glyph glyph-name="uniE302" unicode="&#xe302;" horiz-adv-x="240" 
d="M314 764h-63l-64 108l-102 -108h-69l135 144h80z" />
    <glyph glyph-name="uniE303" unicode="&#xe303;" horiz-adv-x="240" 
d="M205 764h-80l-83 144h63l64 -108l102 108h69z" />
    <glyph glyph-name="uniE304" unicode="&#xe304;" horiz-adv-x="240" 
d="M6 776q7 19 16.5 38t23 33.5t30.5 23.5t40 9q18 0 35 -7t34 -16q17 -8 32.5 -15.5t30.5 -7.5q23 0 36.5 15.5t21.5 34.5h43q-7 -20 -17 -38.5t-23.5 -33t-31 -23.5t-39.5 -9q-18 0 -35 7.5t-34 15.5q-16 9 -31.5 16t-31.5 7q-23 0 -36 -15.5t-21 -34.5h-43z" />
    <glyph glyph-name="uniE305" unicode="&#xe305;" horiz-adv-x="240" 
d="M128 849q0 -20 -14 -35t-34 -15t-34 12.5t-14 34.5t15 36.5t35 14.5t33 -13t13 -35zM326 849q0 -20 -14.5 -35t-34.5 -15t-33.5 12.5t-13.5 34.5t14.5 36.5t34.5 14.5t33.5 -13t13.5 -35z" />
    <glyph glyph-name="uniE308" unicode="&#xe308;" horiz-adv-x="240" 
d="M170 754q-38 0 -61.5 22t-23.5 57q0 23 8 43.5t22.5 36t34 24.5t43.5 9q38 0 61.5 -22t23.5 -57q0 -47 -30 -80t-78 -33zM244 865q0 22 -14 37t-39 15q-31 0 -51 -24t-20 -57q0 -23 14 -37.5t38 -14.5q32 0 52 24t20 57z" />
    </font>
</defs>
</svg>
