<?xml version="1.0" standalone="no"?>
<!DOCTYPE svg PUBLIC "-//W3C//DTD SVG 1.1//EN" "http://www.w3.org/Graphics/SVG/1.1/DTD/svg11.dtd" >
<svg xmlns="http://www.w3.org/2000/svg">
<metadata></metadata>
<defs>
<font id="adelle_sansbold" horiz-adv-x="1556" >
<font-face units-per-em="2048" ascent="1536" descent="-512" />
<missing-glyph horiz-adv-x="356" />
<glyph horiz-adv-x="0" />
<glyph horiz-adv-x="0" />
<glyph unicode="&#xd;" horiz-adv-x="681" />
<glyph unicode=" "  horiz-adv-x="356" />
<glyph unicode="&#x09;" horiz-adv-x="356" />
<glyph unicode="&#xa0;" horiz-adv-x="356" />
<glyph unicode="!" horiz-adv-x="593" d="M115 139q0 166 184 166q182 0 182 -166q0 -164 -182 -164q-184 0 -184 164zM131 1483h336l-39 -1080h-258z" />
<glyph unicode="&#x22;" horiz-adv-x="878" d="M102 952v531h277v-531h-277zM500 952v531h276v-531h-276z" />
<glyph unicode="#" horiz-adv-x="1243" d="M61 285l43 213h193l35 225h-205l43 215h192l41 276h213l-41 -276h177l41 276h213l-41 -276h206l-41 -215h-196l-35 -225h207l-41 -213h-197l-45 -285h-211l43 285h-178l-43 -285h-213l43 285h-203zM510 498h178l33 225h-176z" />
<glyph unicode="$" horiz-adv-x="1126" d="M23 412l270 51q20 -125 74 -180q51 -55 180 -56q98 0 158 43q59 43 59 125q0 39 -19 70q-18 31 -36 49t-66 37q-45 18 -72 24q-12 4 -33.5 9.5t-54.5 15.5q-90 25 -147 49q-57 25 -127 72t-103 123q-35 80 -34 184q0 164 98 268t256 142v184h260v-182q328 -39 350 -385 l-274 -33q-16 102 -57 147q-43 47 -140 48l-8 -3q-92 0 -137 -38q-45 -39 -45 -105q0 -88 63 -133q68 -47 203 -84q76 -23 123 -37q45 -16 110 -49q63 -33 101 -74q35 -39 63 -106q27 -66 27 -154q0 -184 -111 -295q-113 -113 -288 -139v-164h-263v164q-342 45 -380 412z " />
<glyph unicode="%" horiz-adv-x="1701" d="M41 1128q0 180 90 283q90 102 270 102q342 0 342 -356q0 -180 -92 -285q-92 -104 -266 -104h-2q-182 0 -262 98t-80 262zM242 -31l897 1510h270l-895 -1510h-272zM274 1141q0 -102 27 -148q27 -45 92 -45v-2q63 0 92 47q27 45 27 152q0 98 -27 139q-29 43 -92 43 q-119 0 -119 -186zM944 334q0 180 90 282t271 103q342 0 342 -357q0 -180 -93 -284q-92 -104 -266 -105h-2q-182 0 -262 99q-80 98 -80 262zM1178 346q0 -102 26 -147q27 -45 92 -45v-2q63 0 93 47q27 45 26 151q0 98 -26 139q-29 43 -93 43q-119 0 -118 -186z" />
<glyph unicode="&#x26;" horiz-adv-x="1521" d="M72 397q0 285 299 412q-72 121 -72 246q0 176 125 276q127 102 319 103q156 0 258 -70q104 -72 105 -221l-10 -4q0 -238 -328 -375l-29 -12q119 -164 271 -326q59 115 59 307h272v-24q0 -248 -133 -430q70 -45 148 -46q39 0 80 13l32 -234q-74 -27 -170 -30 q-156 0 -311 98q-139 -104 -399 -105q-248 0 -381 119q-135 119 -135 303zM379 426q0 -102 67 -166q66 -63 189 -63h-2q90 0 153 32q-147 135 -321 387q-86 -72 -86 -190zM592 1104l2 -4q0 -80 55 -185q25 12 41.5 21.5t26.5 13.5q18 8 55 37q35 27 51 60q14 29 15 71 q0 49 -31 80t-86 31q-57 0 -92 -33q-37 -35 -37 -92z" />
<glyph unicode="'" horiz-adv-x="481" d="M102 952v531h277v-531h-277z" />
<glyph unicode="(" horiz-adv-x="743" d="M88 573q0 457 326 910h319q-152 -225 -233 -436q-82 -209 -82 -469q0 -252 78 -461q76 -207 215 -430h-322q-301 432 -301 886z" />
<glyph unicode=")" horiz-adv-x="743" d="M-23 -313q150 223 234 436q82 209 82 469q0 252 -78 461q-78 205 -215 430h322q301 -434 301 -887q0 -459 -326 -909h-320z" />
<glyph unicode="*" horiz-adv-x="976" d="M86 1202l45 148l236 -58l41 254h147l37 -250l231 56l43 -148l-219 -110l148 -222l-117 -92l-201 189l-194 -195l-119 94l145 226z" />
<glyph unicode="+" horiz-adv-x="1167" d="M186 541v243h273v285h246v-285h274v-243h-274v-293h-246v293h-273z" />
<glyph unicode="," horiz-adv-x="499" d="M-14 -256l129 526h323l-200 -551z" />
<glyph unicode="-" horiz-adv-x="641" d="M41 465v264h555v-264h-555z" />
<glyph unicode="." horiz-adv-x="514" d="M68 156q0 182 190 182q191 0 191 -182q0 -180 -191 -181q-190 0 -190 181z" />
<glyph unicode="/" horiz-adv-x="907" d="M18 -188l576 1734h280l-573 -1734h-283z" />
<glyph unicode="0" horiz-adv-x="1198" d="M66 741q0 381 127 574q125 190 421 190q291 0 406 -184q115 -186 115 -561q0 -399 -123 -592t-420 -193v-4q-293 0 -410 191q-117 190 -116 579zM391 737q0 -291 43 -407q43 -117 166 -117l-4 -4q121 0 164 119t43 413q0 295 -39 406q-39 113 -160 113q-123 0 -168 -117 q-45 -115 -45 -406z" />
<glyph unicode="1" horiz-adv-x="905" d="M63 1313q293 23 429 170h210v-1483l-309 -2v1114q-45 -25 -151 -43q-104 -18 -164 -18z" />
<glyph unicode="2" horiz-adv-x="1110" d="M57 1094q25 211 160 313q137 102 350 102v-4q217 0 332 -98t115 -283q0 -152 -70 -272q-72 -123 -248 -315l-241 -267v-6h583v-266h-946v258l318 371q190 221 231 288q63 100 64 197q0 156 -166 156q-96 0 -142 -56q-47 -55 -61 -165z" />
<glyph unicode="3" horiz-adv-x="1136" d="M41 358l262 56q12 -98 62 -148q49 -49 149 -49q92 0 152 55q59 55 59 166q0 115 -59 164t-179 49h-145v234h96q127 0 199 61q70 61 70 166q0 164 -168 164q-92 0 -138 -45q-47 -47 -67 -141l-266 53q37 195 172 280q135 86 327 86q215 0 330 -94q117 -96 117 -266 q0 -135 -80 -223q-80 -90 -197 -129v-9q309 -70 310 -368q0 -207 -142 -326q-139 -119 -381 -119q-193 0 -327 93q-135 92 -156 290z" />
<glyph unicode="4" horiz-adv-x="1222" d="M55 332v219l588 932h377v-901h166v-250h-168v-332h-299v332h-664zM328 582h391v618z" />
<glyph unicode="5" horiz-adv-x="1146" d="M37 356l268 56q27 -193 215 -193q94 0 160 66q63 63 63 194q0 227 -196 228q-115 0 -215 -99l-201 84l57 793h781v-266h-555l-35 -371q113 98 283 98q174 0 282 -110q109 -113 109 -340q0 -244 -144 -381q-143 -137 -387 -138q-193 0 -325 91q-133 88 -160 288z" />
<glyph unicode="6" horiz-adv-x="1183" d="M96 705q0 57 3 110t12 107q14 104 55 215q39 109 102 190q59 78 170 131q104 51 242 51q352 0 424 -344l-275 -78q-16 100 -55 142q-41 41 -117 41q-88 0 -149 -74t-86 -174q-23 -96 -27 -221q125 113 320 112q180 0 289 -110q109 -113 108 -320q0 -250 -139 -379 t-363 -129q-152 0 -252 56q-102 55 -157 159t-80 228q-25 123 -25 287zM410 586l2 -2q2 -57 6 -104.5t10 -84.5q12 -72 59 -131q45 -57 129 -57q88 0 136 67q47 70 47 185t-39 166q-41 53 -135 53q-111 0 -215 -92z" />
<glyph unicode="7" horiz-adv-x="1087" d="M63 1217v266h973v-238l-565 -1247h-328l572 1219h-652z" />
<glyph unicode="8" horiz-adv-x="1165" d="M47 365q0 268 285 397q-227 106 -228 342q0 190 140 299q139 109 368 108q229 0 351 -94q123 -96 122 -252q0 -121 -61 -202q-61 -82 -186 -156l2 -2q152 -72 219 -160q68 -90 67 -239q0 -182 -153 -306q-154 -123 -408 -123q-256 0 -387 111t-131 277zM348 391 q0 -184 223 -184q109 0 166 51t58 131q0 53 -21 92q-20 39 -67 70q-49 33 -82 49t-103 43q-84 -47 -129 -104t-45 -148zM422 1143q0 -78 51 -129q51 -53 160 -105l-2 -2q156 94 155 228q0 147 -184 147q-82 0 -131 -37t-49 -102z" />
<glyph unicode="9" horiz-adv-x="1181" d="M63 328l265 80q18 -104 65 -152q47 -47 129 -47q127 0 195 133q70 135 71 338q-119 -106 -319 -107q-184 0 -291 111q-106 109 -106 326q0 246 143 374q143 129 371 129q143 0 245 -55q100 -55 156 -160q55 -104 80 -229q25 -127 25 -289q0 -805 -568 -805 q-397 0 -461 353zM379 1024q0 -227 176 -227q115 0 213 92l4 -4q-4 90 -12 151q-8 59 -31 119q-23 59 -63 86q-45 29 -105 29q-182 0 -182 -246z" />
<glyph unicode=":" horiz-adv-x="544" d="M82 156q0 182 190 182q191 0 191 -182q0 -180 -191 -181q-190 0 -190 181zM82 858q0 182 190 182q191 0 191 -182q0 -180 -191 -180q-190 0 -190 180z" />
<glyph unicode=";" horiz-adv-x="532" d="M-10 -256l129 526h323l-200 -551zM111 858q0 182 190 182q191 0 191 -182q0 -180 -191 -180q-190 0 -190 180z" />
<glyph unicode="&#x3c;" horiz-adv-x="1167" d="M141 451v290l801 287v-256l-534 -174l534 -176v-252z" />
<glyph unicode="=" horiz-adv-x="1167" d="M188 260v246h791v-246h-791zM188 647v246h791v-246h-791z" />
<glyph unicode="&#x3e;" horiz-adv-x="1167" d="M199 174v250l534 174l-534 174v256l800 -287v-286z" />
<glyph unicode="?" horiz-adv-x="1120" d="M27 1083q25 201 163 312q137 111 373 110q96 0 182 -22q80 -20 154 -72q72 -49 111 -137q41 -92 41 -209q0 -375 -426 -475v-187l-310 3v374q408 33 408 291q0 178 -178 178q-96 0 -148 -51q-51 -51 -69 -162zM283 141q0 166 182 166t182 -166q0 -164 -182 -164t-182 164 z" />
<glyph unicode="@" horiz-adv-x="1751" d="M80 375q0 362 233 590q233 227 613 227q336 0 538 -184q203 -184 203 -500q0 -264 -106 -395t-285 -131q-188 0 -240 104q-80 -102 -233 -102q-145 0 -221 104q-78 106 -78 279q0 193 92 319q92 127 250 127q111 0 176 -72l16 60h166v-539q0 -53 19 -80q18 -29 71 -28 q57 0 99 59q41 61 53 131q12 74 12 156q0 238 -135 372q-135 135 -414 136q-154 0 -278 -54q-121 -51 -193 -141t-104 -197q-35 -111 -35 -227q0 -301 164 -448q162 -147 442 -148q193 0 365 84l61 -176q-154 -98 -450 -98q-354 0 -578 196q-223 197 -223 576zM713 391 q0 -244 141 -244q80 0 150 82l-3 375q-43 47 -118 47q-80 0 -125 -63t-45 -197z" />
<glyph unicode="A" horiz-adv-x="1452" d="M29 0l485 1483h393l525 -1483h-347l-122 360h-494l-115 -360h-325zM522 612h375l-184 574h-8z" />
<glyph unicode="B" horiz-adv-x="1304" d="M154 0v1483h587q449 0 449 -363q0 -139 -80 -225q-82 -88 -203 -121v-4q344 -41 344 -362q0 -408 -559 -408h-538zM469 244l164 -2q143 0 215 41t72 153q0 113 -68 154q-70 41 -190 41h-193v-387zM471 868l115 2q63 0 110 7q45 6 92 24q45 18 70 62q25 43 25 104 q0 109 -62 139q-61 31 -186 31h-164v-369z" />
<glyph unicode="C" horiz-adv-x="1423" d="M76 725q0 360 186 571q188 213 529 213q262 0 417 -131q156 -131 168 -401l-289 -25q-16 156 -86 228q-69 69 -211 69h-4q-385 0 -385 -508q0 -268 93 -387q91 -118 269 -118h3q150 0 221 67q70 68 98 197l285 -49q-20 -166 -121 -279q-98 -111 -221 -154t-266 -43h-2 q-684 0 -684 750z" />
<glyph unicode="D" horiz-adv-x="1482" d="M152 -2v1483h520q375 0 555 -187q180 -186 180 -530q0 -354 -193 -559t-577 -205zM467 252l154 -2q246 0 354 127q109 127 108 368q0 266 -104 375q-104 106 -334 107h-178v-975z" />
<glyph unicode="E" horiz-adv-x="1193" d="M152 0v1483h940v-264h-625v-349h588v-258h-588v-346h661v-266h-976z" />
<glyph unicode="F" horiz-adv-x="1132" d="M152 0v1483h933v-264h-618v-377h569v-260h-569v-582h-315z" />
<glyph unicode="G" horiz-adv-x="1513" d="M82 721q0 365 184 577q184 213 533 213q256 0 411 -125q156 -125 174 -393l-294 -28q-16 133 -82 209q-67 77 -211 77h-4q-195 0 -289 -131q-96 -133 -96 -375q0 -266 90 -393q88 -125 282 -125q143 0 224 74q80 74 79 186v54h-270v231h582v-772h-230l-32 186 q-47 -96 -164 -151t-258 -55q-322 0 -475 200q-154 199 -154 541z" />
<glyph unicode="H" horiz-adv-x="1501" d="M152 0v1483h315v-602h567v602h318v-1483h-318v608h-567v-608h-315z" />
<glyph unicode="I" horiz-adv-x="618" d="M152 0v1483h315v-1483h-315z" />
<glyph unicode="J" horiz-adv-x="1085" d="M33 393l303 45q10 -109 37 -157q27 -49 110 -50q74 0 111 41q37 39 37 136l2 1073h317v-1067q0 -440 -467 -441q-436 0 -450 420z" />
<glyph unicode="K" horiz-adv-x="1378" d="M152 0v1483h313v-635l575 635h336l-542 -617l534 -866h-369l-391 621l-143 -156v-465h-313z" />
<glyph unicode="L" horiz-adv-x="1163" d="M152 0v1483h315v-1217h635v-266h-950z" />
<glyph unicode="M" horiz-adv-x="1873" d="M152 0v1483h471l313 -1084h8l311 1084h469v-1483h-294v1163h-9l-350 -1163h-285l-337 1165h-9v-1165h-288z" />
<glyph unicode="N" horiz-adv-x="1525" d="M152 0v1483h376l562 -1051v1051h286v-1483h-364l-572 1047v-1047h-288z" />
<glyph unicode="O" d="M78 735h2q0 342 188 559q186 215 535 215q340 0 510 -206q170 -207 170 -539q0 -373 -180 -580q-182 -209 -535 -209q-354 0 -522 205t-168 555zM406 741q0 -499 375 -499h1h2q375 0 375 503q0 498 -360 498q-184 0 -289 -125q-104 -127 -104 -377z" />
<glyph unicode="P" horiz-adv-x="1271" d="M150 0v1483h561q262 0 379 -131q117 -133 116 -332q0 -541 -579 -541h-162l-2 -479h-313zM463 733l123 2q137 0 215 56q78 55 78 206q0 133 -68 183q-68 49 -197 49h-151v-496z" />
<glyph unicode="Q" d="M78 735q0 342 188 559q186 215 535 215q340 0 510 -206q170 -207 170 -539q0 -346 -170 -553l168 -180l-197 -166l-170 184q-158 -74 -344 -74q-354 0 -522 205t-168 555zM406 739q0 -258 98 -381q97 -122 277 -122h3h4q82 0 142 20l-232 246l191 170l219 -248 q53 111 53 319q0 498 -362 498q-184 0 -289 -125q-104 -127 -104 -377z" />
<glyph unicode="R" horiz-adv-x="1314" d="M152 -2v1483h577q258 0 375 -117t117 -299q0 -307 -256 -424l335 -643h-339l-293 563h-203v-563h-313zM465 809h162q268 0 268 223q0 104 -64 150q-63 45 -192 45h-174v-418z" />
<glyph unicode="S" horiz-adv-x="1220" d="M18 442l287 43q20 -125 84 -194q61 -68 211 -68q246 0 246 183q0 61 -43 104q-45 45 -111 65q-35 10 -71.5 20.5t-77.5 20.5q-84 18 -166 50q-80 31 -150 73q-68 43 -110 127q-43 82 -43 197q0 207 153 328q151 118 383 118h4q106 0 193 -18q88 -18 162 -64 q76 -47 123 -135q45 -90 55 -215l-289 -33q-10 113 -63 166q-55 55 -181 56l-10 -6q-111 0 -166 -43t-55 -117q0 -61 43 -105q43 -43 111 -67q35 -12 72.5 -24.5t78.5 -22.5t83 -23.5t83 -30.5q86 -31 152 -73q68 -43 110 -123q43 -80 43 -191q0 -236 -162 -352 q-164 -117 -405 -117q-539 0 -574 471z" />
<glyph unicode="T" horiz-adv-x="1218" d="M16 1217v266h1186v-266h-432v-1217h-317v1217h-437z" />
<glyph unicode="U" horiz-adv-x="1449" d="M131 543v940h318v-897q0 -182 61 -264t219 -82l-6 -2q154 0 213 77q59 78 59 265v903h316v-948q0 -559 -598 -560q-305 0 -443 138q-139 139 -139 430z" />
<glyph unicode="V" horiz-adv-x="1355" d="M-6 1483h354l338 -1172h12l338 1172h326l-461 -1483h-426z" />
<glyph unicode="W" horiz-adv-x="1974" d="M16 1483h330l209 -1143h8l264 1143h338l273 -1149h10l192 1149h318l-318 -1483h-403l-240 1022h-8l-237 -1022h-416z" />
<glyph unicode="X" horiz-adv-x="1333" d="M-2 0l479 748l-457 735h353l303 -502l307 502h328l-463 -733l487 -750h-364l-324 494l-309 -494h-340z" />
<glyph unicode="Y" horiz-adv-x="1241" d="M-37 1483h346l326 -635h10l313 635h320l-483 -924v-559h-318v555z" />
<glyph unicode="Z" horiz-adv-x="1212" d="M55 0v231l703 988h-684v264h1050v-236l-690 -981h719v-266h-1098z" />
<glyph unicode="[" horiz-adv-x="651" d="M113 -293v1776h465v-201h-166v-1374h166v-201h-465z" />
<glyph unicode="\" horiz-adv-x="913" d="M39 1546h280l576 -1734h-283z" />
<glyph unicode="]" horiz-adv-x="651" d="M74 -92h166v1374h-166v201h465v-1776h-465v201z" />
<glyph unicode="^" horiz-adv-x="1398" d="M141 612l404 748h313l408 -748h-295l-273 484l-266 -484h-291z" />
<glyph unicode="_" horiz-adv-x="1024" d="M0 -145h1024v-226h-1024v226z" />
<glyph unicode="`" horiz-adv-x="1024" d="M195 1522h331l152 -332l-207 -19z" />
<glyph unicode="a" horiz-adv-x="1142" d="M68 258q0 373 596 373h16v39q0 100 -29 147t-123 47q-78 0 -110 -33q-35 -35 -49 -112l-263 51q51 319 451 320q217 0 324 -91q104 -90 104 -286l-4 -447q0 -45 12 -63t51 -19q23 0 64 13l8 -179q-86 -41 -196 -41q-188 0 -220 136q-104 -137 -317 -138q-92 0 -162 29 q-68 27 -98 74q-31 45 -43 90q-12 43 -12 90zM377 311q0 -116 123 -116h2q109 0 178 69v189h-49q-121 -2 -189 -35q-66 -31 -65 -107z" />
<glyph unicode="b" horiz-adv-x="1212" d="M125 2v1546h303v-575q119 119 320 119q174 0 282 -129q109 -131 109 -406q0 -301 -119 -440q-121 -141 -326 -142q-178 0 -293 115h-6l-14 -90zM432 295q94 -70 186 -70q199 0 199 326q0 293 -188 293q-109 0 -197 -82v-467z" />
<glyph unicode="c" horiz-adv-x="1114" d="M76 510q0 272 141 424q140 149 401 149h3q195 0 311 -104q119 -106 133 -297l-277 -41q-10 109 -49 158q-41 49 -125 49q-100 0 -159 -66q-57 -63 -58 -237q0 -176 54 -254q51 -76 157 -76q88 0 135 47q45 45 62 148l260 -50q-29 -195 -156 -288q-131 -96 -325 -97l8 -8 q-258 0 -387 148q-129 147 -129 395z" />
<glyph unicode="d" horiz-adv-x="1210" d="M76 510q0 299 131 438q131 141 319 142q174 0 271 -91v547h297l-2 -1546h-258l-19 104l-6 2q-119 -131 -315 -131q-197 0 -308 129t-110 406zM395 522q0 -303 205 -303q102 0 184 76l-2 489q-82 59 -172 60q-215 0 -215 -322z" />
<glyph unicode="e" horiz-adv-x="1120" d="M70 528q0 274 147 416q147 141 377 141q231 0 346 -129q113 -127 113 -362q0 -84 -6 -139h-650q2 -129 56 -185q51 -55 157 -55q78 0 117 39q41 41 55 113l260 -64q-31 -152 -147 -240q-115 -88 -303 -88v-2q-145 0 -248 45q-104 45 -162 125q-57 80 -86 176 q-26 89 -26 201v8zM399 651l330 -2q0 213 -156 213q-74 0 -122 -51q-47 -51 -52 -160z" />
<glyph unicode="f" horiz-adv-x="749" d="M12 842v225h144v123q0 195 104 287t289 92q156 0 235 -39l-12 -219q-71 26 -138 26h-5q-84 0 -123 -37q-41 -37 -41 -139v-94h283v-225h-283v-842h-309v842h-144z" />
<glyph unicode="g" horiz-adv-x="1146" d="M33 -215q0 72 53 125q51 51 141 67v9q-155 45 -155 178q0 74 41 127q37 49 127 112q-156 88 -156 289q0 176 127 287q125 111 350 111l-12 2q186 0 282 -66q74 162 197 162q39 0 86 -19v-202q-10 2 -22.5 2h-28.5q-59 0 -123 -19q88 -100 88 -239q0 -174 -129 -279 q-129 -104 -338 -104q-92 0 -178 22q-39 -39 -39 -67q0 -51 96 -56l303 -18q182 -12 271 -82q90 -72 90 -227q0 -188 -154 -277q-152 -88 -405 -88q-276 0 -395 66q-117 63 -117 184zM305 -154q0 -108 255 -108h5q113 0 172 24q59 25 60 86v-4q0 78 -131 86l-297 19 q-63 -45 -64 -103zM367 711q0 -164 190 -164q82 0 135 43q51 43 51 121q0 161 -180 161h-2q-90 0 -141 -38q-53 -41 -53 -123z" />
<glyph unicode="h" horiz-adv-x="1193" d="M117 0v1546h307v-577q156 121 330 121q172 0 252 -89q80 -90 79 -272v-729h-309v674q0 164 -141 164q-113 0 -209 -84v-754h-309z" />
<glyph unicode="i" horiz-adv-x="548" d="M90 1393q0 88 49 137t140 49q88 0 137 -49t49 -137t-49 -138q-49 -49 -137 -49t-138 49q-49 49 -49 140zM123 0v1067h309v-1067h-309z" />
<glyph unicode="j" horiz-adv-x="544" d="M-203 -399l23 231q92 -41 168 -41q133 0 133 160v1116h309v-1151q0 -195 -100 -283q-102 -90 -279 -90h-2q-170 0 -252 58zM88 1397q0 88 49 137t137 49q90 0 140 -49q49 -49 49 -137h-2q0 -90 -49 -140q-49 -49 -138 -49q-88 0 -137 49t-49 140z" />
<glyph unicode="k" horiz-adv-x="1155" d="M121 0v1546h309v-852l352 373h342l-354 -383l381 -684h-342l-277 487l-102 -100v-387h-309z" />
<glyph unicode="l" horiz-adv-x="548" d="M123 0v1546h309v-1546h-309z" />
<glyph unicode="m" horiz-adv-x="1748" d="M113 2v1067h262l14 -100q147 123 324 123q205 0 272 -134q129 133 332 134q319 0 319 -355v-735h-309v686q0 80 -27 115q-29 37 -92 37q-45 0 -94 -21q-53 -23 -80 -51v-12v-15v-739h-309v686q0 80 -27 115q-29 37 -92 37q-43 0 -98 -23q-49 -20 -82 -53l-4 -762h-309z " />
<glyph unicode="n" horiz-adv-x="1193" d="M121 0v1067h274l17 -106q137 129 338 129q176 0 256 -89q80 -90 79 -272l5 -729h-310v676q0 164 -141 164q-113 0 -209 -84v-756h-309z" />
<glyph unicode="o" horiz-adv-x="1202" d="M68 528q0 262 139 412q137 147 411 147q268 0 392 -143q123 -145 123 -393q0 -272 -134 -424q-133 -152 -409 -152h-2q-520 0 -520 553zM391 535q0 -178 49 -254t162 -76h2q102 0 156 78q51 76 51 258q0 172 -49 243q-49 72 -154 72q-106 0 -162 -76q-55 -78 -55 -245z " />
<glyph unicode="p" horiz-adv-x="1212" d="M121 -434v1501h262l18 -109q131 131 334 132q184 0 293 -127t109 -406q0 -297 -121 -440q-121 -141 -314 -142q-168 0 -282 103v-512h-299zM422 299q29 -25 82 -49q55 -25 106 -25q201 0 201 326q0 160 -45 225q-47 68 -141 68q-102 0 -199 -82z" />
<glyph unicode="q" horiz-adv-x="1208" d="M78 516q0 158 39 268q39 113 104 179q66 66 141 96q76 31 166 31q180 0 283 -121l29 98h254l2 -1501h-295v526q-121 -117 -307 -117q-416 0 -416 541zM401 528q0 -307 205 -307q98 0 182 74v485q-72 63 -176 64q-211 0 -211 -316z" />
<glyph unicode="r" horiz-adv-x="804" d="M113 -2v1067h264l22 -168q131 190 338 190h27h29l-5 -303q-10 2 -23 2h-30q-195 0 -313 -98v-690h-309z" />
<glyph unicode="s" horiz-adv-x="1026" d="M45 268l252 82q20 -76 68 -119q45 -43 145 -43q154 0 154 101q0 55 -43 73q-47 20 -156 41q-90 14 -141 31q-55 16 -117 51q-63 37 -94 101q-31 63 -31 155q0 168 127 258t317 91l-6 -3q342 0 426 -282l-254 -80q-23 74 -61 111q-40 36 -117 36h-4q-135 0 -135 -94 q0 -53 49 -73q49 -23 166 -43q88 -16 141 -31q55 -16 115 -49q61 -35 92 -95q31 -61 31 -151q0 -176 -131 -268q-133 -92 -338 -93q-199 0 -314 78q-115 76 -141 215z" />
<glyph unicode="t" horiz-adv-x="843" d="M12 842v225h160v315l309 41v-356h283v-225h-283v-477q0 -76 27 -109q29 -35 98 -35q94 0 178 49l39 -221q-43 -27 -131 -51q-86 -25 -180 -25q-166 0 -254 84q-86 82 -86 265v520h-160z" />
<glyph unicode="u" horiz-adv-x="1183" d="M111 1069h309v-674q0 -90 31 -129t104 -39q106 0 203 84v756h309v-1067h-266l-23 115q-119 -137 -338 -138q-328 0 -327 355z" />
<glyph unicode="v" horiz-adv-x="1097" d="M-8 1067h334l227 -770h8l227 770h318l-377 -1067h-360z" />
<glyph unicode="w" horiz-adv-x="1665" d="M-8 1067h309l195 -750h4l188 750h303l189 -745h6l186 745h301l-317 -1067h-348l-172 696h-5l-157 -696h-367z" />
<glyph unicode="x" horiz-adv-x="1087" d="M14 1067h334l207 -326l213 326h297l-348 -518l358 -549h-330l-217 330l-211 -330h-297l349 535z" />
<glyph unicode="y" horiz-adv-x="1077" d="M-8 1067h334l223 -743h6l215 743h317q-123 -338 -227 -630t-196 -541q-70 -193 -156 -273t-246 -80q-145 0 -233 45l22 224q98 -33 160 -33q106 0 154 115l32 83z" />
<glyph unicode="z" horiz-adv-x="954" d="M55 0v219l492 617h-488v231h824v-219l-475 -600h503v-248h-856z" />
<glyph unicode="{" horiz-adv-x="690" d="M-2 506v188h43q131 0 131 148q0 39 -3 91t-11 118t-11.5 112.5t-3.5 75.5q0 266 318 266h155v-207h-45q-55 0 -75 -24q-20 -23 -21 -74q0 -29 4 -76t13 -112q8 -66 12 -113t4 -78q0 -94 -41 -141t-129 -80q88 -35 129 -80q41 -47 41 -141q0 -33 -3 -79t-11 -107 t-11.5 -107.5t-3.5 -75.5q0 -49 23 -76q20 -25 84 -24h37l-7 -205h-155q-317 0 -318 266q0 29 3.5 75t11.5 110q8 63 11 113t3 89q0 147 -131 148h-43z" />
<glyph unicode="|" horiz-adv-x="573" d="M147 -293v1839h281v-1839h-281z" />
<glyph unicode="}" horiz-adv-x="690" d="M61 -90h45q53 0 76 24q20 23 21 74q0 29 -3 76t-12 113q-8 66 -11 112.5t-3 77.5q0 94 41 141q39 45 129 80q-90 33 -129 80q-41 47 -41 141q0 33 4 80t12 109q8 61 12.5 107t4.5 75q0 55 -21 78q-23 25 -82 25h-36l-7 204h156q317 0 318 -266q0 -29 -3.5 -75t-11.5 -111 q-8 -66 -11 -116t-3 -89q0 -147 131 -148h43v-188h-43q-131 0 -131 -147q0 -39 3 -91.5t11 -117.5q8 -66 11.5 -113t3.5 -76q0 -266 -318 -266h-156v207z" />
<glyph unicode="~" horiz-adv-x="1228" d="M137 672q0 117 58 182q56 68 165 68q76 0 265 -45q188 -45 233 -46q35 0 47 19q12 18 13 72l169 -9q2 -20 3.5 -34.5t1.5 -24.5q0 -109 -52 -174q-53 -68 -153 -68q-80 0 -273 45t-233 45q-59 0 -59 -65q0 -23 2 -31l-183 6q-2 20 -3 35t-1 25z" />
<glyph unicode="&#xa1;" horiz-adv-x="593" d="M121 926q0 164 182 164q184 0 184 -164q0 -166 -184 -166q-182 0 -182 166zM135 -418l39 1080h258l39 -1080h-336z" />
<glyph unicode="&#xa2;" horiz-adv-x="1099" d="M92 717q0 213 98 348q98 133 277 174v217l266 2v-213q135 -25 219 -121t97 -245l-279 -41q-10 96 -43 139q-35 43 -111 43q-96 0 -147 -57q-53 -59 -53 -211q0 -150 47 -222t153 -71q82 0 123 41q39 39 56 135l258 -47q-23 -147 -111 -240q-88 -90 -227 -119v-229h-260 v229q-178 33 -271 164q-92 129 -92 324z" />
<glyph unicode="&#xa3;" horiz-adv-x="1214" d="M33 0v246l114 -2q78 66 109 121t31 129q0 61 -35 141h-197v225h133q-82 143 -82 248q0 178 140 289q137 111 372 110q211 0 332 -92q119 -92 150 -299l-275 -47q-14 98 -59 156q-43 55 -145 55q-188 0 -189 -172q0 -82 82 -244h395v-225h-338q23 -61 23 -123 q0 -147 -125 -270h215q123 0 170 41t66 153l260 -45q-14 -205 -127 -301q-109 -94 -338 -94h-682z" />
<glyph unicode="&#xa5;" horiz-adv-x="1175" d="M25 1483h331l244 -518h8l236 518h309l-319 -629h180v-192h-264v-142h264v-192h-264v-328h-310v328h-260v192h260v142h-260v192h170z" />
<glyph unicode="&#xa6;" horiz-adv-x="573" d="M147 -293v795h281v-795h-281zM147 854v692h281v-692h-281z" />
<glyph unicode="&#xa7;" horiz-adv-x="1165" d="M80 485q0 174 184 295q-119 111 -119 275q0 180 140 288q139 109 344 109q186 0 307 -92t139 -289l-266 -31q-10 100 -51 148q-43 49 -137 49q-84 0 -129 -37t-46 -100q0 -63 50 -107q47 -41 120 -63q35 -10 74 -22.5t80 -28.5q82 -31 154 -62t120 -102q49 -72 50 -172 q0 -178 -185 -310q117 -104 117 -268q0 -188 -129 -295q-127 -106 -350 -106q-193 0 -311 92q-121 92 -140 289l269 30q8 -96 53 -147q43 -49 139 -49q82 0 129 37t47 104q0 76 -67 119q-68 43 -162 67q-47 12 -95.5 26.5t-95.5 31.5q-94 33 -161 112q-68 80 -68 207z M354 555q0 -39 19 -70q16 -29 59 -51q20 -10 40 -18t38 -15q18 -6 44 -13t58 -17q33 -10 58.5 -17.5t46.5 -15.5q92 55 92 129q0 45 -37 80q-37 33 -80 49q-23 8 -54.5 18.5t-72.5 22.5q-84 25 -129 43q-80 -53 -80 -125h-2z" />
<glyph unicode="&#xa8;" horiz-adv-x="1024" d="M86 1389q0 78 51 122q53 47 135 48q78 0 129 -48q49 -47 50 -122q0 -78 -50 -123q-47 -45 -129 -45v-2q-82 0 -135 47q-51 45 -51 123zM571 1386q0 76 50 123q51 47 133 47q80 0 131 -47q49 -47 49 -123q0 -78 -49 -122q-47 -45 -131 -45v-2q-82 0 -133 47 q-49 45 -50 122z" />
<glyph unicode="&#xa9;" horiz-adv-x="1642" d="M102 668q0 328 207 524q205 197 516 197q330 0 525 -189q193 -186 192 -504h-2q0 -324 -199 -522q-199 -199 -522 -199q-344 0 -530 193t-187 500zM274 670q0 -250 146 -391q143 -141 403 -142v2q254 0 400 146q145 145 145 399q0 258 -149 399q-152 141 -396 142 q-242 0 -395 -148q-154 -147 -154 -407zM461 684q0 178 98 287t275 108q127 0 213 -67q88 -68 96 -205l-150 -16q-10 84 -49 120q-41 37 -117 37q-90 0 -141 -63q-53 -66 -53 -203q0 -262 196 -262q150 0 181 155l147 -32q-16 -96 -74 -160q-57 -63 -122 -82 q-66 -18 -136 -18q-186 0 -276 108q-88 106 -88 293z" />
<glyph unicode="&#xaa;" horiz-adv-x="813" d="M53 752q0 78 39 129t111 73q76 23 127 29q55 6 133 6v27q0 53 -17 82q-14 27 -73 26q-84 0 -99 -94l-204 37q41 225 319 225q154 0 232 -59t77 -189v-272q0 -53 37 -53q23 0 41 8l6 -135q-59 -27 -131 -27q-139 0 -164 97q-78 -98 -215 -99q-121 0 -170 60 q-49 57 -49 129zM295 782q0 -61 74 -61q55 0 96 37v104q-170 0 -170 -80z" />
<glyph unicode="&#xab;" horiz-adv-x="950" d="M76 526l182 310h250l-180 -301l172 -324h-248zM457 526l182 310h250l-180 -301l172 -324h-248z" />
<glyph unicode="&#xac;" horiz-adv-x="1167" d="M174 543v243h793v-438h-228v195h-565z" />
<glyph unicode="&#xad;" horiz-adv-x="636" d="M41 465v264h555v-264h-555z" />
<glyph unicode="&#xae;" horiz-adv-x="952" d="M78 954q0 180 115 289t282 109q180 0 289 -105q106 -104 106 -276h-4q0 -174 -110 -285q-111 -111 -287 -111q-188 0 -289 107q-102 109 -102 272zM178 956q0 -133 80 -208q78 -76 213 -76q133 0 213 80t80 213l-6 -4q0 137 -80 215q-78 76 -209 75q-127 0 -209 -80 t-82 -215zM334 780v389h145q147 0 148 -112q0 -76 -72 -105l104 -172h-108l-86 146h-35v-146h-96zM430 995h27q72 0 71 54q0 49 -61 49h-37v-103z" />
<glyph unicode="&#xaf;" horiz-adv-x="1024" d="M193 1231v209h636v-209h-636z" />
<glyph unicode="&#xb0;" horiz-adv-x="733" d="M129 1282q0 111 72 178q70 68 172 68q100 0 170 -66q68 -66 67 -172q0 -106 -67 -174q-68 -68 -174 -67l4 -5q-106 0 -176 66q-68 63 -68 172zM268 1288q0 -43 29 -71q29 -29 74 -29l-2 -4q43 0 71 30q29 33 29 78q0 43 -29 76q-29 31 -67 31q-43 0 -74 -31t-31 -80z" />
<glyph unicode="&#xb1;" horiz-adv-x="1167" d="M186 0v244h793v-244h-793zM186 541v243h273v285h246v-285h274v-243h-274v-246h-246v246h-273z" />
<glyph unicode="&#xb2;" horiz-adv-x="829" d="M61 1376q16 139 113 209q100 72 242 72l4 -2q162 0 244 -66q80 -66 79 -178q0 -102 -61 -184q-63 -86 -217 -215l-66 -68v-8h359v-221h-670v221l199 199q111 111 145 159q37 51 37 99q0 70 -70 69q-90 0 -104 -116z" />
<glyph unicode="&#xb3;" horiz-adv-x="843" d="M45 954l234 39q10 -102 104 -102q98 0 98 98q0 55 -26 80q-29 25 -93 25h-102v176h64q143 0 143 121q0 74 -78 73q-76 0 -98 -96l-225 41q45 246 352 246q152 0 233 -58q84 -59 84 -165q0 -154 -178 -222v-6q201 -41 201 -219q0 -135 -105 -211q-102 -76 -266 -76 q-135 0 -231 60q-96 57 -111 196z" />
<glyph unicode="&#xb4;" horiz-adv-x="1024" d="M350 1190l154 332h330l-277 -351z" />
<glyph unicode="&#xb5;" horiz-adv-x="1288" d="M166 -360v1427h309v-676q0 -90 25 -129t88 -39q102 0 209 88v756h309v-1067h-256l-10 111h-11q-127 -121 -276 -121q-51 0 -86 8l-2 -2l20 -356h-319z" />
<glyph unicode="&#xb6;" horiz-adv-x="1230" d="M80 969q0 137 43 239q43 100 123 160q80 57 182 86q104 29 227 29h428l4 -1759h-215v1562h-135v-1562h-215v772q-221 16 -332 137q-111 123 -110 336z" />
<glyph unicode="&#xb7;" horiz-adv-x="487" d="M70 633q0 164 176 164q174 0 174 -164q0 -162 -174 -162q-176 0 -176 162z" />
<glyph unicode="&#xb8;" horiz-adv-x="1024" d="M279 -475l28 139q55 -14 99 -14q102 0 102 76q0 45 -31 61t-100 18l33 256l147 -16l-18 -137q174 -31 174 -189q0 -109 -74 -165q-72 -57 -193 -58q-92 0 -167 29z" />
<glyph unicode="&#xb9;" horiz-adv-x="671" d="M63 1530q199 14 291 106h199v-925l-274 2v643q-25 -14 -99 -27q-72 -12 -106 -12z" />
<glyph unicode="&#xba;" horiz-adv-x="851" d="M51 920q0 172 96 272q94 98 289 98q188 0 277 -94q88 -94 88 -258q0 -182 -94 -279q-96 -98 -291 -98v-4q-365 0 -365 363zM301 924q0 -106 29 -154q27 -45 96 -45v-6q66 0 92 45q29 47 29 160q0 109 -27 149q-29 43 -92 43q-66 0 -96 -45q-31 -47 -31 -147z" />
<glyph unicode="&#xbb;" horiz-adv-x="950" d="M63 836h250l183 -314l-179 -311h-245l172 313zM444 836h250l183 -314l-179 -311h-245l172 313z" />
<glyph unicode="&#xbc;" horiz-adv-x="2072" d="M96 1391q199 14 291 106h199v-926l-275 2v644q-25 -14 -98 -27q-72 -12 -107 -12zM477 -25l725 1508h283l-723 -1508h-285zM1178 190v183l360 555h326v-533h106v-205h-104v-188h-262v188h-426zM1403 395h201v307z" />
<glyph unicode="&#xbd;" horiz-adv-x="2072" d="M102 1391q199 14 291 106h199v-926l-275 2v644q-25 -14 -98 -27q-72 -12 -106 -12zM467 -25l725 1508h283l-723 -1508h-285zM1255 664q16 139 113 208q100 72 242 72l4 -2q162 0 244 -65q80 -66 79 -179q0 -102 -61 -184q-63 -86 -217 -215l-66 -68v-8h359v-221h-670v221 l199 199q111 111 145 160q37 51 37 98q0 70 -70 70q-90 0 -104 -117z" />
<glyph unicode="&#xbe;" horiz-adv-x="2072" d="M82 815l233 39q10 -102 105 -102q98 0 98 98q0 55 -26 80q-29 25 -93 24h-102v176h63q143 0 144 121q0 74 -78 74q-76 0 -98 -96l-226 41q45 246 353 246q152 0 233 -58q84 -59 84 -166q0 -154 -178 -221v-6q201 -41 201 -219q0 -135 -105 -211q-102 -76 -266 -76 q-135 0 -231 59q-96 57 -111 197zM543 -25l725 1508h282l-723 -1508h-284zM1204 188v183l361 555h325v-533h107v-205h-105v-188h-262v188h-426zM1430 393h200v307z" />
<glyph unicode="&#xbf;" horiz-adv-x="1097" d="M57 0q0 375 426 475v187l301 -5v-374q-408 -33 -407 -291q0 -178 178 -178q96 0 147 51q53 53 72 162l301 -47q-25 -199 -162 -310q-139 -111 -370 -110q-96 0 -183 22q-80 20 -153 72q-72 49 -111 137q-39 86 -39 209zM453 922q0 164 182 163q182 0 182 -163 q0 -166 -182 -166t-182 166z" />
<glyph unicode="&#xc0;" horiz-adv-x="1452" d="M29 0l485 1483h393l525 -1483h-347l-122 360h-494l-115 -360h-325zM369 1876h331l187 -287l-219 -16zM522 612h375l-184 574h-8z" />
<glyph unicode="&#xc1;" horiz-adv-x="1452" d="M29 0l485 1483h393l525 -1483h-347l-122 360h-494l-115 -360h-325zM522 612h375l-184 574h-8zM528 1589l187 287h332l-299 -303z" />
<glyph unicode="&#xc2;" horiz-adv-x="1452" d="M29 0l485 1483h393l525 -1483h-347l-122 360h-494l-115 -360h-325zM350 1587l219 291h287l209 -291l-205 -12l-147 147l-154 -149zM522 612h375l-184 574h-8z" />
<glyph unicode="&#xc3;" horiz-adv-x="1452" d="M33 -4l485 1483h393l525 -1483h-346l-123 360h-494l-115 -360h-325zM348 1663q0 111 55 176q55 66 152 66l4 -4q70 0 166 -43q94 -43 135 -43q35 0 47 18t13 72l155 -9q2 -20 3 -35.5t1 -25.5q0 -104 -49 -166q-49 -61 -141 -61q-80 0 -176 45t-135 45q-59 0 -60 -66 q0 -23 2 -30l-168 6q-2 18 -3 31.5t-1 23.5zM526 608h375l-184 574h-8z" />
<glyph unicode="&#xc4;" horiz-adv-x="1452" d="M29 -4l485 1483h393l525 -1483h-347l-122 360h-494l-115 -360h-325zM283 1755q0 78 51 123q53 47 135 47q78 0 129 -47q49 -47 49 -123q0 -78 -49 -123q-47 -45 -129 -45v-2q-82 0 -135 47q-51 45 -51 123zM522 608h375l-184 574h-8zM768 1753q0 76 49 123q51 47 133 47 q80 0 131 -47q49 -47 49 -123q0 -78 -49 -123q-47 -45 -131 -45v-2q-82 0 -133 47q-49 45 -49 123z" />
<glyph unicode="&#xc5;" horiz-adv-x="1452" d="M27 -4l479 1468q-55 61 -55 156q0 119 73 184q76 66 185 66q111 0 184 -62q74 -61 74 -174l-2 -4q0 -100 -56 -162l521 -1472h-347l-122 360h-494l-115 -360h-325zM520 608h375l-184 574h-9zM596 1632q0 -106 111 -106v2q104 0 104 108q0 102 -104 103q-51 0 -80 -27 q-31 -29 -31 -80z" />
<glyph unicode="&#xc6;" horiz-adv-x="2054" d="M27 0l723 1483h1194v-266h-625v-371h588v-256h-588v-324h663v-266h-978v586h-365l-279 -586h-333zM731 836h273v381h-89z" />
<glyph unicode="&#xc7;" horiz-adv-x="1423" d="M76 725q0 360 186 571q188 213 529 213q262 0 417 -131q156 -131 168 -401l-289 -25q-16 156 -86 228q-70 70 -215 69q-385 0 -385 -508q0 -268 93 -387q92 -119 272 -118q150 0 221 67q70 68 98 197l285 -49q-23 -158 -110 -265q-90 -109 -199 -153q-111 -47 -246 -56 l-8 -69q174 -31 174 -189q0 -109 -74 -165q-72 -57 -192 -58q-92 0 -168 29l28 139q55 -14 99 -14q102 0 102 76q0 45 -31 61t-100 18l23 175q-592 49 -592 745z" />
<glyph unicode="&#xc8;" horiz-adv-x="1193" d="M152 0v1483h940v-264h-625v-349h588v-258h-588v-346h661v-266h-976zM289 1876h332l186 -287l-219 -16z" />
<glyph unicode="&#xc9;" horiz-adv-x="1193" d="M152 0v1483h940v-264h-625v-349h588v-258h-588v-346h661v-266h-976zM449 1589l186 287h332l-299 -303z" />
<glyph unicode="&#xca;" horiz-adv-x="1193" d="M152 0v1483h940v-264h-625v-349h588v-258h-588v-346h661v-266h-976zM270 1587l219 291h287l209 -291l-205 -12l-147 147l-154 -149z" />
<glyph unicode="&#xcb;" horiz-adv-x="1193" d="M152 -4v1483h940v-265h-625v-348h588v-258h-588v-346h661v-266h-976zM203 1755q0 78 51 123q53 47 135 47q78 0 129 -47q49 -47 49 -123q0 -78 -49 -123q-47 -45 -129 -45v-2q-82 0 -135 47q-51 45 -51 123zM688 1753q0 76 49 123q51 47 133 47q80 0 131 -47 q49 -47 50 -123q0 -78 -50 -123q-47 -45 -131 -45v-2q-82 0 -133 47q-49 45 -49 123z" />
<glyph unicode="&#xcc;" horiz-adv-x="618" d="M-29 1876h332l186 -287l-219 -16zM152 0v1483h315v-1483h-315z" />
<glyph unicode="&#xcd;" horiz-adv-x="618" d="M131 1589l186 287h332l-299 -303zM152 0v1483h315v-1483h-315z" />
<glyph unicode="&#xce;" horiz-adv-x="618" d="M-47 1587l219 291h287l209 -291l-205 -12l-148 147l-153 -149zM152 0v1483h315v-1483h-315z" />
<glyph unicode="&#xcf;" horiz-adv-x="618" d="M-115 1755q0 78 52 123q53 47 135 47q78 0 129 -47q49 -47 49 -123q0 -78 -49 -123q-47 -45 -129 -45v-2q-82 0 -135 47q-51 45 -52 123zM152 -4v1483h315v-1483h-315zM371 1753q0 76 49 123q51 47 133 47q80 0 131 -47q49 -47 49 -123q0 -78 -49 -123q-47 -45 -131 -45 v-2q-82 0 -133 47q-49 45 -49 123z" />
<glyph unicode="&#xd0;" horiz-adv-x="1482" d="M14 623v264h138v594h520q375 0 555 -187q180 -186 180 -530q0 -354 -193 -559t-577 -205l-485 -2v625h-138zM467 252l154 -2q246 0 354 127q109 127 108 368q0 266 -104 375q-104 106 -334 107h-178v-340h350v-264h-350v-371z" />
<glyph unicode="&#xd1;" horiz-adv-x="1525" d="M156 -4v1483h376l562 -1051v1051h286v-1483h-364l-572 1046v-1046h-288zM401 1663q0 111 56 176q55 66 151 66l4 -4q70 0 166 -43q94 -43 135 -43q35 0 48 18q12 18 12 72l155 -9q2 -20 3.5 -35.5t1.5 -25.5q0 -104 -50 -166q-49 -61 -141 -61q-80 0 -176 45t-135 45 q-59 0 -60 -66q0 -23 2 -30l-167 6l-3.5 31.5t-1.5 23.5z" />
<glyph unicode="&#xd2;" d="M78 735h2q0 342 188 559q186 215 535 215q340 0 510 -206q170 -207 170 -539q0 -373 -180 -580q-182 -209 -535 -209q-354 0 -522 205t-168 555zM406 741q0 -500 376 -499h2q375 0 375 503q0 498 -360 498q-184 0 -289 -125q-104 -127 -104 -377zM459 1876h332l186 -287 l-219 -16z" />
<glyph unicode="&#xd3;" d="M78 735h2q0 342 188 559q186 215 535 215q340 0 510 -206q170 -207 170 -539q0 -373 -180 -580q-182 -209 -535 -209q-354 0 -522 205t-168 555zM406 741q0 -500 376 -499h2q375 0 375 503q0 498 -360 498q-184 0 -289 -125q-104 -127 -104 -377zM618 1589l187 287h332 l-299 -303z" />
<glyph unicode="&#xd4;" d="M78 735h2q0 342 188 559q186 215 535 215q340 0 510 -206q170 -207 170 -539q0 -373 -180 -580q-182 -209 -535 -209q-354 0 -522 205t-168 555zM406 741q0 -500 376 -499h2q375 0 375 503q0 498 -360 498q-184 0 -289 -125q-104 -127 -104 -377zM440 1587l219 291h287 l209 -291l-205 -12l-147 147l-154 -149z" />
<glyph unicode="&#xd5;" d="M82 731h2q0 342 188 559q186 215 535 215q340 0 510 -207t170 -538q0 -373 -180 -580q-182 -209 -535 -209q-354 0 -522 205t-168 555zM410 737q0 -500 376 -499h2q375 0 375 503q0 498 -360 498q-184 0 -289 -125q-104 -127 -104 -377zM438 1663q0 111 56 176 q55 66 151 66l4 -4q70 0 166 -43q94 -43 135 -43q35 0 47 18t13 72l155 -9q2 -20 3 -35.5t1 -25.5q0 -104 -49 -166q-49 -61 -141 -61q-80 0 -176 45t-135 45q-59 0 -60 -66q0 -23 2 -30l-168 6q-2 18 -3 31.5t-1 23.5z" />
<glyph unicode="&#xd6;" d="M78 731h2q0 342 188 559q186 215 535 215q340 0 510 -207t170 -538q0 -373 -180 -580q-182 -209 -535 -209q-354 0 -522 205t-168 555zM373 1755q0 78 51 123q53 47 135 47q78 0 129 -47q49 -47 49 -123q0 -78 -49 -123q-47 -45 -129 -45v-2q-82 0 -135 47 q-51 45 -51 123zM406 737q0 -500 376 -499h2q375 0 375 503q0 498 -360 498q-184 0 -289 -125q-104 -127 -104 -377zM858 1753q0 76 49 123q51 47 133 47q80 0 131 -47q49 -47 50 -123q0 -78 -50 -123q-47 -45 -131 -45v-2q-82 0 -133 47q-49 45 -49 123z" />
<glyph unicode="&#xd7;" horiz-adv-x="1167" d="M209 457l203 200l-203 203l172 178l203 -202l202 202l172 -178l-202 -203l202 -200l-172 -178l-202 202l-203 -202z" />
<glyph unicode="&#xd8;" d="M80 735q0 342 188 559q186 215 535 215q80 0 147 -12l56 129h290l-94 -225q281 -188 281 -637q0 -373 -180 -580q-182 -209 -535 -209h2q-82 0 -156 13l-55 -135h-293l94 229q-281 188 -280 653zM406 741l2 -2q0 -231 81 -356l357 856q-14 2 -25.5 3t-21.5 1 q-184 0 -289 -125q-104 -127 -104 -377zM723 242q10 -2 25.5 -2h35.5q375 0 375 503q0 227 -80 355z" />
<glyph unicode="&#xd9;" horiz-adv-x="1449" d="M131 543v940h318v-897q0 -182 61 -264t219 -82l-6 -2q154 0 213 77q59 78 59 265v903h316v-948q0 -559 -598 -560q-305 0 -443 138q-139 139 -139 430zM383 1876h332l186 -287l-219 -16z" />
<glyph unicode="&#xda;" horiz-adv-x="1449" d="M131 543v940h318v-897q0 -182 61 -264t219 -82l-6 -2q154 0 213 77q59 78 59 265v903h316v-948q0 -559 -598 -560q-305 0 -443 138q-139 139 -139 430zM559 1589l186 287h332l-299 -303z" />
<glyph unicode="&#xdb;" horiz-adv-x="1449" d="M131 543v940h318v-897q0 -182 61 -264t219 -82l-6 -2q154 0 213 77q59 78 59 265v903h316v-948q0 -559 -598 -560q-305 0 -443 138q-139 139 -139 430zM365 1587l219 291h286l209 -291l-205 -12l-147 147l-154 -149z" />
<glyph unicode="&#xdc;" horiz-adv-x="1449" d="M131 539v940h318v-897q0 -182 61 -265q61 -82 219 -81l-6 -3q154 0 213 78t59 264v904h316v-949q0 -559 -598 -559q-305 0 -443 138q-139 139 -139 430zM297 1755q0 78 51 123q53 47 135 47q78 0 129 -47q49 -47 50 -123q0 -78 -50 -123q-47 -45 -129 -45v-2 q-82 0 -135 47q-51 45 -51 123zM782 1753q0 76 49 123q51 47 134 47q80 0 131 -47q49 -47 49 -123q0 -78 -49 -123q-47 -45 -131 -45v-2q-82 0 -134 47q-49 45 -49 123z" />
<glyph unicode="&#xdd;" horiz-adv-x="1241" d="M-37 1483h346l326 -635h10l313 635h320l-483 -924v-559h-318v555zM451 1589l186 287h332l-299 -303z" />
<glyph unicode="&#xde;" horiz-adv-x="1271" d="M150 -2v1483h313v-238h248q139 0 237 -37t154 -104q55 -68 80 -144q25 -78 24 -165q0 -530 -579 -531h-162l-2 -264h-313zM463 514l129 -2q139 0 215 53q74 51 74 203q0 123 -70 172q-72 49 -197 49h-151v-475z" />
<glyph unicode="&#xdf;" horiz-adv-x="1343" d="M115 2v1051q0 522 542 522q236 0 369 -105q133 -104 133 -290q0 -137 -67 -224q-66 -84 -158 -118v-7q156 -35 244 -122q90 -90 90 -287q0 -193 -111 -318q-111 -127 -328 -127q-242 0 -354 148l117 188q84 -109 196 -108q168 0 168 237q0 244 -278 244h-72v221h35 q211 0 211 228q0 219 -205 219q-111 0 -166 -62q-55 -61 -55 -221v-1071z" />
<glyph unicode="&#xe0;" horiz-adv-x="1142" d="M68 258q0 373 596 373h16v39q0 100 -29 147t-123 47q-78 0 -110 -33q-35 -35 -49 -112l-263 51q51 319 451 320q217 0 324 -91q104 -90 104 -286l-4 -447q0 -45 12 -63t51 -19q23 0 64 13l8 -179q-86 -41 -196 -41q-188 0 -220 136q-104 -137 -317 -138q-92 0 -162 29 q-68 27 -98 74q-31 45 -43 90q-12 43 -12 90zM231 1522h332l152 -332l-207 -19zM377 311q0 -117 125 -116q109 0 178 69v189h-49q-121 -2 -189 -35q-66 -31 -65 -107z" />
<glyph unicode="&#xe1;" horiz-adv-x="1142" d="M68 258q0 373 596 373h16v39q0 100 -29 147t-123 47q-78 0 -110 -33q-35 -35 -49 -112l-263 51q51 319 451 320q217 0 324 -91q104 -90 104 -286l-4 -447q0 -45 12 -63t51 -19q23 0 64 13l8 -179q-86 -41 -196 -41q-188 0 -220 136q-104 -137 -317 -138q-92 0 -162 29 q-68 27 -98 74q-31 45 -43 90q-12 43 -12 90zM377 311q0 -117 125 -116q109 0 178 69v189h-49q-121 -2 -189 -35q-66 -31 -65 -107zM387 1190l154 332h329l-276 -351z" />
<glyph unicode="&#xe2;" horiz-adv-x="1142" d="M68 258q0 373 596 373h16v39q0 100 -29 147t-123 47q-78 0 -110 -33q-35 -35 -49 -112l-263 51q51 319 451 320q217 0 324 -91q104 -90 104 -286l-4 -447q0 -45 12 -63t51 -19q23 0 64 13l8 -179q-86 -41 -196 -41q-188 0 -220 136q-104 -137 -317 -138q-92 0 -162 29 q-68 27 -98 74q-31 45 -43 90q-12 43 -12 90zM193 1190l215 336h294l207 -336l-204 -10l-150 192l-156 -194zM377 311q0 -117 125 -116q109 0 178 69v189h-49q-121 -2 -189 -35q-66 -31 -65 -107z" />
<glyph unicode="&#xe3;" horiz-adv-x="1142" d="M68 258q0 373 596 373h16v39q0 100 -29 147t-123 47q-78 0 -110 -33q-35 -35 -49 -112l-263 51q51 319 451 320q217 0 324 -91q104 -90 104 -286l-4 -447q0 -45 12 -63t51 -19q23 0 64 13l8 -179q-86 -41 -196 -41q-188 0 -220 136q-104 -137 -317 -138q-92 0 -162 29 q-68 27 -98 74q-31 45 -43 90q-12 43 -12 90zM184 1257q0 111 56 177q55 66 151 65h4q74 0 166 -45t135 -45q35 0 47 18t13 72l155 -8q2 -20 3 -35.5t1 -25.5q0 -104 -49 -166q-49 -61 -141 -62q-80 0 -176 45t-135 45q-59 0 -60 -65q0 -23 2 -31l-168 6q-2 18 -3 31.5 t-1 23.5zM377 311q0 -117 125 -116q109 0 178 69v189h-49q-121 -2 -189 -35q-66 -31 -65 -107z" />
<glyph unicode="&#xe4;" horiz-adv-x="1142" d="M68 258q0 373 596 373h16v39q0 100 -29 147t-123 47q-78 0 -110 -33q-35 -35 -49 -112l-263 51q51 319 451 320q217 0 324 -91q104 -90 104 -286l-4 -447q0 -45 12 -63t51 -19q23 0 64 13l8 -179q-86 -41 -196 -41q-188 0 -220 136q-104 -137 -317 -138q-92 0 -162 29 q-68 27 -98 74q-31 45 -43 90q-12 43 -12 90zM123 1389q0 78 51 122q53 47 135 48q78 0 129 -48q49 -47 49 -122q0 -78 -49 -123q-47 -45 -129 -45v-2q-82 0 -135 47q-51 45 -51 123zM377 311q0 -117 125 -116q109 0 178 69v189h-49q-121 -2 -189 -35q-66 -31 -65 -107z M608 1386q0 76 49 123q51 47 134 47q80 0 131 -47q49 -47 49 -123q0 -78 -49 -122q-47 -45 -131 -45v-2q-82 0 -134 47q-49 45 -49 122z" />
<glyph unicode="&#xe5;" horiz-adv-x="1142" d="M63 250q0 373 596 373h17v39q0 100 -29 147t-123 47q-78 0 -110 -33q-35 -35 -49 -112l-263 51q51 319 451 319q217 0 324 -90q104 -90 104 -286l-4 -447q0 -45 12 -63t51 -19q23 0 64 12l8 -178q-86 -41 -197 -41q-188 0 -219 135q-104 -137 -317 -137q-92 0 -162 29 q-68 27 -98 74q-31 45 -43 90q-12 43 -13 90zM322 1366q0 106 65 166q66 59 164 59q100 0 166 -55t65 -158q0 -102 -63 -157q-66 -55 -168 -56q-104 0 -166 56q-61 55 -61 153zM373 303q0 -117 125 -117q109 0 178 70v188h-49q-121 -2 -189 -34q-66 -31 -65 -107zM459 1372 q0 -90 92 -90h-2q90 0 90 92q0 86 -90 86q-41 0 -66 -24q-25 -25 -24 -64z" />
<glyph unicode="&#xe6;" horiz-adv-x="1716" d="M70 258q0 113 49 191t141 114q92 37 184 49t215 13h21v43q0 100 -29 147t-123 47q-78 0 -110 -33q-35 -35 -49 -112l-263 51q51 319 451 319q211 0 301 -145q51 66 146 107q90 39 200 38q221 0 332 -131q111 -133 111 -362q0 -74 -7 -129h-649q2 -133 56 -193 q51 -57 159 -57q78 0 117 39q41 41 55 113l260 -64q-31 -152 -147 -240q-115 -88 -303 -88q-272 0 -397 160q-166 -160 -392 -160q-94 0 -168 29q-72 27 -104 74q-31 43 -45 90q-12 43 -12 90zM381 311q0 -117 125 -116v-2q51 0 110 24q55 25 99 59q-27 70 -37 177h-43 q-121 -2 -189 -35q-66 -31 -65 -107zM995 651l330 -2v15q0 199 -156 198q-74 0 -122 -51q-47 -51 -52 -160z" />
<glyph unicode="&#xe7;" horiz-adv-x="1114" d="M70 514q0 272 141 424q141 150 403 149q195 0 312 -104q119 -106 133 -297l-277 -41q-10 109 -49 158q-41 49 -125 49q-100 0 -159 -66q-57 -63 -58 -237q0 -176 53 -254q51 -76 158 -76q88 0 135 47q45 45 62 148l260 -49q-25 -182 -135 -277q-111 -96 -285 -111l-8 -69 q174 -31 174 -189q0 -109 -74 -165q-72 -57 -192 -58q-92 0 -168 29l28 139q55 -14 99 -14q102 0 102 76q0 45 -31 61t-100 18l23 177q-213 25 -318 165q-104 141 -104 367z" />
<glyph unicode="&#xe8;" horiz-adv-x="1120" d="M70 528q0 274 147 416q147 141 377 141q231 0 346 -129q113 -127 113 -362q0 -84 -6 -139h-650q2 -129 56 -185q51 -55 157 -55q78 0 117 39q41 41 55 113l260 -64q-31 -152 -147 -240q-115 -88 -303 -88v-2q-145 0 -248 45q-104 45 -162 125q-57 80 -86 176 q-27 92 -26 209zM264 1518h332l152 -332l-207 -19zM399 651l330 -2q0 213 -156 213q-74 0 -122 -51q-47 -51 -52 -160z" />
<glyph unicode="&#xe9;" horiz-adv-x="1120" d="M70 528q0 274 147 416q147 141 377 141q231 0 346 -129q113 -127 113 -362q0 -84 -6 -139h-650q2 -129 56 -185q51 -55 157 -55q78 0 117 39q41 41 55 113l260 -64q-31 -152 -147 -240q-115 -88 -303 -88v-2q-145 0 -248 45q-104 45 -162 125q-57 80 -86 176 q-27 92 -26 209zM399 651l330 -2q0 213 -156 213q-74 0 -122 -51q-47 -51 -52 -160zM420 1186l153 332h330l-276 -351z" />
<glyph unicode="&#xea;" horiz-adv-x="1120" d="M70 528q0 274 147 416q147 141 377 141q231 0 346 -129q113 -127 113 -362q0 -84 -6 -139h-650q2 -129 56 -185q51 -55 157 -55q78 0 117 39q41 41 55 113l260 -64q-31 -152 -147 -240q-115 -88 -303 -88v-2q-145 0 -248 45q-104 45 -162 125q-57 80 -86 176 q-27 92 -26 209zM223 1190l215 336h295l207 -336l-205 -10l-149 192l-156 -194zM399 651l330 -2q0 213 -156 213q-74 0 -122 -51q-47 -51 -52 -160z" />
<glyph unicode="&#xeb;" horiz-adv-x="1120" d="M70 528q0 274 147 416q147 141 377 141q231 0 346 -129q113 -127 113 -362q0 -84 -6 -139h-650q2 -129 56 -185q51 -55 157 -55q78 0 117 39q41 41 55 113l260 -64q-31 -152 -147 -240q-115 -88 -303 -88v-2q-145 0 -248 45q-104 45 -162 125q-57 80 -86 176 q-27 92 -26 209zM156 1384q0 78 51 123q53 47 135 47q78 0 129 -47q49 -47 49 -123q0 -78 -49 -122q-47 -45 -129 -45v-3q-82 0 -135 48q-51 45 -51 122zM399 651l330 -2q0 213 -156 213q-74 0 -122 -51q-47 -51 -52 -160zM641 1382q0 76 49 123q51 47 133 47q80 0 131 -47 q49 -47 50 -123q0 -78 -50 -122q-47 -45 -131 -46v-2q-82 0 -133 48q-49 45 -49 122z" />
<glyph unicode="&#xec;" horiz-adv-x="548" d="M-39 1522h332l151 -332l-206 -19zM123 0v1067h309v-1067h-309z" />
<glyph unicode="&#xed;" horiz-adv-x="548" d="M117 1190l153 332h330l-276 -351zM123 0v1067h309v-1067h-309z" />
<glyph unicode="&#xee;" horiz-adv-x="548" d="M-82 1190l215 336h295l207 -336l-205 -10l-149 192l-156 -194zM123 0v1067h309v-1067h-309z" />
<glyph unicode="&#xef;" horiz-adv-x="548" d="M-147 1389q0 78 51 122q53 47 135 48q78 0 129 -48q49 -47 49 -122q0 -78 -49 -123q-47 -45 -129 -45v-2q-82 0 -135 47q-51 45 -51 123zM123 0v1067h309v-1067h-309zM338 1386q0 76 49 123q51 47 133 47q80 0 131 -47q49 -47 49 -123q0 -78 -49 -122q-47 -45 -131 -45 v-2q-82 0 -133 47q-49 45 -49 122z" />
<glyph unicode="&#xf0;" horiz-adv-x="1204" d="M61 506q0 233 119 379q119 147 344 147q125 0 246 -55l8 10q-57 150 -205 242q-150 94 -290 114l110 250q190 -33 338 -127l221 144l135 -193l-169 -108q213 -250 212 -658q0 -315 -133 -497q-131 -180 -417 -181q-258 0 -387 144q-129 143 -130 393zM383 512 q0 -326 207 -326q117 0 172 109q55 106 55 326q0 29 -3 61.5t-7 71.5q-90 68 -205 67q-106 0 -162 -69q-55 -72 -55 -240h-2z" />
<glyph unicode="&#xf1;" horiz-adv-x="1193" d="M121 0v1067h274l17 -106q137 129 338 129q176 0 256 -89q80 -90 79 -272l5 -729h-310v676q0 164 -141 164q-113 0 -209 -84v-756h-309zM231 1257q0 111 56 177q55 66 151 65h4q74 0 166 -45t135 -45q35 0 48 18q12 18 12 72l155 -8q2 -20 3.5 -35.5t1.5 -25.5 q0 -104 -50 -166q-49 -61 -141 -62q-80 0 -176 45t-135 45q-59 0 -60 -65q0 -23 2 -31l-167 6l-3.5 31.5t-1.5 23.5z" />
<glyph unicode="&#xf2;" horiz-adv-x="1202" d="M68 528q0 262 139 412q137 147 411 147q268 0 392 -143q123 -145 123 -393q0 -272 -134 -424q-133 -152 -409 -152h-2q-520 0 -520 553zM297 1522h332l151 -332l-207 -19zM391 535q0 -178 49 -254t162 -76h2q102 0 156 78q51 76 51 258q0 172 -49 243q-49 72 -154 72 q-106 0 -162 -76q-55 -78 -55 -245z" />
<glyph unicode="&#xf3;" horiz-adv-x="1202" d="M68 528q0 262 139 412q137 147 411 147q268 0 392 -143q123 -145 123 -393q0 -272 -134 -424q-133 -152 -409 -152h-2q-520 0 -520 553zM391 535q0 -178 49 -254t162 -76h2q102 0 156 78q51 76 51 258q0 172 -49 243q-49 72 -154 72q-106 0 -162 -76q-55 -78 -55 -245z M453 1190l153 332h330l-277 -351z" />
<glyph unicode="&#xf4;" horiz-adv-x="1202" d="M68 528q0 262 139 412q137 147 411 147q268 0 392 -143q123 -145 123 -393q0 -272 -134 -424q-133 -152 -409 -152h-2q-520 0 -520 553zM254 1190l215 336h295l207 -336l-205 -10l-150 192l-155 -194zM391 535q0 -178 49 -254t162 -76h2q102 0 156 78q51 76 51 258 q0 172 -49 243q-49 72 -154 72q-106 0 -162 -76q-55 -78 -55 -245z" />
<glyph unicode="&#xf5;" horiz-adv-x="1202" d="M68 528q0 262 139 412q137 147 411 147q268 0 392 -143q123 -145 123 -393q0 -272 -134 -424q-133 -152 -409 -152h-2q-520 0 -520 553zM250 1257q0 111 55 177t152 65h4q74 0 166 -45t135 -45q35 0 47 18t12 72l156 -8q2 -20 3 -35.5t1 -25.5q0 -104 -49 -166 q-49 -61 -141 -62q-80 0 -177 45q-96 45 -135 45q-59 0 -59 -65q0 -23 2 -31l-168 6q-2 18 -3 31.5t-1 23.5zM391 535q0 -178 49 -254t162 -76h2q102 0 156 78q51 76 51 258q0 172 -49 243q-49 72 -154 72q-106 0 -162 -76q-55 -78 -55 -245z" />
<glyph unicode="&#xf6;" horiz-adv-x="1202" d="M68 528q0 262 139 412q137 147 411 147q268 0 392 -143q123 -145 123 -393q0 -272 -134 -424q-133 -152 -409 -152h-2q-520 0 -520 553zM188 1389q0 78 52 122q53 47 135 48q78 0 129 -48q49 -47 49 -122q0 -78 -49 -123q-47 -45 -129 -45v-2q-82 0 -135 47 q-51 45 -52 123zM391 535q0 -178 49 -254t162 -76h2q102 0 156 78q51 76 51 258q0 172 -49 243q-49 72 -154 72q-106 0 -162 -76q-55 -78 -55 -245zM674 1386q0 76 49 123q51 47 133 47q80 0 131 -47q49 -47 49 -123q0 -78 -49 -122q-47 -45 -131 -45v-2q-82 0 -133 47 q-49 45 -49 122z" />
<glyph unicode="&#xf7;" horiz-adv-x="1167" d="M182 535v245h793v-245h-793zM408 997q0 68 43 111t120 43q78 0 121 -43t43 -111h-4q0 -150 -162 -149q-162 0 -161 149zM412 317q0 68 43 111t120 43q78 0 121 -43t43 -111h-4q0 -152 -162 -151q-162 0 -161 151z" />
<glyph unicode="&#xf8;" horiz-adv-x="1202" d="M68 530q0 262 139 412q137 147 411 148q68 0 107 -9l53 119h215l-80 -180q219 -127 220 -469q0 -272 -134 -424q-133 -152 -409 -152l-2 2q-33 0 -66 3.5t-67 7.5l-58 -133h-217l88 202q-201 129 -200 473zM391 539v2q0 -113 15 -172l217 491h-15q-106 0 -162 -76 q-55 -78 -55 -245zM553 211q16 -2 28.5 -3t20.5 -1q102 0 156 78q51 76 51 258q0 121 -25 192z" />
<glyph unicode="&#xf9;" horiz-adv-x="1183" d="M111 1069h309v-674q0 -90 31 -129t104 -39q106 0 203 84v756h309v-1067h-266l-23 115q-119 -137 -338 -138q-328 0 -327 355zM270 1524h332l152 -332l-207 -18z" />
<glyph unicode="&#xfa;" horiz-adv-x="1183" d="M111 1069h309v-674q0 -90 31 -129t104 -39q106 0 203 84v756h309v-1067h-266l-23 115q-119 -137 -338 -138q-328 0 -327 355zM426 1192l154 332h329l-276 -350z" />
<glyph unicode="&#xfb;" horiz-adv-x="1183" d="M111 1069h309v-674q0 -90 31 -129t104 -39q106 0 203 84v756h309v-1067h-266l-23 115q-119 -137 -338 -138q-328 0 -327 355zM229 1190l215 336h295l207 -336l-205 -10l-149 192l-156 -194z" />
<glyph unicode="&#xfc;" horiz-adv-x="1183" d="M111 1069h309v-674q0 -90 31 -129t104 -39q106 0 203 84v756h309v-1067h-266l-23 115q-119 -137 -338 -138q-328 0 -327 355zM162 1391q0 78 51 122q53 47 135 48q78 0 129 -48q49 -47 49 -122q0 -78 -49 -123q-47 -45 -129 -45v-2q-82 0 -135 47q-51 45 -51 123z M647 1389q0 76 49 122q51 47 133 48q80 0 132 -48q49 -47 49 -122q0 -78 -49 -123q-47 -45 -132 -45v-2q-82 0 -133 47q-49 45 -49 123z" />
<glyph unicode="&#xfd;" horiz-adv-x="1077" d="M-8 1067h334l223 -743h6l215 743h317q-123 -338 -227 -630t-196 -541q-70 -193 -156 -273t-246 -80q-145 0 -233 45l22 224q98 -33 160 -33q106 0 154 115l32 83zM377 1190l153 332h330l-276 -351z" />
<glyph unicode="&#xfe;" horiz-adv-x="1212" d="M121 -434v1980h303v-575q119 119 317 119q180 0 289 -127t109 -406q0 -297 -121 -440q-121 -141 -313 -142q-168 0 -283 103v-512h-301zM424 299q29 -25 82 -49q55 -25 106 -25q201 0 201 326q0 160 -45 225q-47 68 -141 68q-102 0 -199 -82z" />
<glyph unicode="&#xff;" horiz-adv-x="1077" d="M-8 1067h334l223 -743h6l215 743h317q-123 -338 -227 -630t-196 -541q-70 -193 -156 -273t-246 -80q-145 0 -233 45l22 224q98 -33 160 -33q106 0 154 115l32 83zM113 1389q0 78 51 122q53 47 135 48q78 0 129 -48q49 -47 49 -122q0 -78 -49 -123q-47 -45 -129 -45v-2 q-82 0 -135 47q-51 45 -51 123zM598 1386q0 76 49 123q51 47 133 47q80 0 131 -47q49 -47 50 -123q0 -78 -50 -122q-47 -45 -131 -45v-2q-82 0 -133 47q-49 45 -49 122z" />
<glyph unicode="&#x2dc;" horiz-adv-x="1024" d="M147 1257q0 111 56 177q55 66 151 65h4q74 0 166 -45t135 -45q35 0 48 18q12 18 12 72l155 -8q2 -20 3.5 -35.5t1.5 -25.5q0 -104 -50 -166q-49 -61 -141 -62q-80 0 -176 45t-135 45q-59 0 -60 -65q0 -23 2 -31l-167 6l-3.5 31.5t-1.5 23.5z" />
<glyph unicode="&#x2000;" horiz-adv-x="962" />
<glyph unicode="&#x2001;" horiz-adv-x="1925" />
<glyph unicode="&#x2002;" horiz-adv-x="962" />
<glyph unicode="&#x2003;" horiz-adv-x="1925" />
<glyph unicode="&#x2004;" horiz-adv-x="641" />
<glyph unicode="&#x2005;" horiz-adv-x="481" />
<glyph unicode="&#x2006;" horiz-adv-x="320" />
<glyph unicode="&#x2007;" horiz-adv-x="320" />
<glyph unicode="&#x2008;" horiz-adv-x="240" />
<glyph unicode="&#x2009;" horiz-adv-x="385" />
<glyph unicode="&#x200a;" horiz-adv-x="106" />
<glyph unicode="&#x2010;" horiz-adv-x="641" d="M41 465v264h555v-264h-555z" />
<glyph unicode="&#x2011;" horiz-adv-x="641" d="M41 465v264h555v-264h-555z" />
<glyph unicode="&#x2012;" horiz-adv-x="641" d="M41 465v264h555v-264h-555z" />
<glyph unicode="&#x2013;" horiz-adv-x="1024" d="M0 461v227h1024v-227h-1024z" />
<glyph unicode="&#x2014;" horiz-adv-x="2048" d="M0 461v227h2048v-227h-2048z" />
<glyph unicode="&#x2018;" horiz-adv-x="446" d="M39 1118l182 502l223 -25l-108 -477h-297z" />
<glyph unicode="&#x2019;" horiz-adv-x="446" d="M37 1108l108 477h297l-182 -502z" />
<glyph unicode="&#x201c;" horiz-adv-x="821" d="M39 1118l182 502l223 -25l-108 -477h-297zM416 1118l182 502l223 -25l-108 -477h-297z" />
<glyph unicode="&#x201d;" horiz-adv-x="821" d="M37 1108l108 477h297l-182 -502zM410 1108l108 477h297l-182 -502z" />
<glyph unicode="&#x201e;" horiz-adv-x="817" d="M4 -283l109 478h297l-183 -502zM381 -283l108 478h297l-182 -502z" />
<glyph unicode="&#x2022;" horiz-adv-x="942" d="M162 569q0 150 80 228q78 76 229 75q309 0 309 -301v-2q0 -299 -309 -299t-309 299z" />
<glyph unicode="&#x2026;" horiz-adv-x="1478" d="M68 156q0 182 190 182q191 0 191 -182q0 -180 -191 -181q-190 0 -190 181zM555 156q0 182 190 182q191 0 191 -182q0 -180 -191 -181q-190 0 -190 181zM1032 156q0 182 191 182q190 0 190 -182q0 -180 -190 -181q-190 0 -191 181z" />
<glyph unicode="&#x202f;" horiz-adv-x="385" />
<glyph unicode="&#x2039;" horiz-adv-x="571" d="M76 526l182 310h250l-180 -301l172 -324h-248z" />
<glyph unicode="&#x203a;" horiz-adv-x="571" d="M63 836h250l183 -314l-179 -311h-245l172 313z" />
<glyph unicode="&#x205f;" horiz-adv-x="481" />
<glyph unicode="&#x20ac;" horiz-adv-x="1320" d="M18 483l31 181h144v127h-127l30 180h115q47 262 195 403q147 141 385 142q465 0 485 -488l-270 -29q-8 143 -60 203q-49 59 -160 60q-219 0 -270 -289h397l-30 -180h-383v-127h366l-30 -181h-316q29 -131 88 -190q61 -61 166 -62q115 0 166 58q51 57 76 178l258 -45 q-14 -125 -68 -217q-53 -94 -125 -141t-153 -70q-76 -20 -166 -21v2q-471 0 -553 506h-191z" />
<glyph unicode="&#x2122;" horiz-adv-x="1753" d="M84 1343v140h649v-140h-244v-630h-163v630h-242zM831 715v768h189l209 -582l211 582h178v-770h-150v489l-182 -489h-129l-178 491v-489h-148z" />
<glyph unicode="&#x25fc;" horiz-adv-x="1064" d="M0 0v1065h1065v-1065h-1065z" />
</font>
</defs>
</svg>
