<?xml version="1.0" standalone="no"?>
<!DOCTYPE svg PUBLIC "-//W3C//DTD SVG 1.1//EN" "http://www.w3.org/Graphics/SVG/1.1/DTD/svg11.dtd" >
<svg xmlns="http://www.w3.org/2000/svg">
<metadata>
This is a custom SVG webfont generated by Font Squirrel.
Copyright   :  2010 Microsoft Corporation All Rights Reserved
Foundry     : Microsoft Corporation
Foundry URL : httpwwwmicrosoftcomtypographyfonts
</metadata>
<defs>
<font id="SegoeRegular" horiz-adv-x="1104" >
<font-face units-per-em="2048" ascent="1638" descent="-410" />
<missing-glyph horiz-adv-x="561" />
<glyph unicode=" " horiz-adv-x="561" d="M0 0z" />
<glyph unicode="!" horiz-adv-x="582" d="M180 92q0 46 32.5 78.5t78.5 32.5q45 0 77.5 -32.5t32.5 -78.5q0 -45 -32.5 -77.5t-77.5 -32.5q-46 0 -78.5 32.5t-32.5 77.5zM203 1434h172l-19 -1031h-135z" />
<glyph unicode="&#x22;" horiz-adv-x="772" d="M178 1434h135l-10 -447h-115zM461 1434h135l-10 -447h-117z" />
<glyph unicode="#" horiz-adv-x="1210" d="M33 520l20 107h264l62 299h-277l21 106h276l84 402h127l-84 -402h252l86 402h123l-84 -402h262l-22 -106h-260l-64 -299h281l-27 -107h-274l-88 -397h-127l86 397h-250l-84 -397h-125l84 397h-262zM440 627h254l64 299h-252z" />
<glyph unicode="$" d="M162 1059q0 142 97.5 248t252.5 129v180h104v-176q195 -6 271 -56v-170q-102 79 -271 86v-528q177 -85 255 -159q106 -102 106 -242q0 -142 -93 -237q-95 -98 -268 -126v-217h-104v209q-101 0 -207 29q-94 25 -139 57v174q58 -52 162 -87q99 -34 184 -34v512 q-182 88 -254 160q-96 98 -96 248zM330 1079q0 -85 40 -140.5t142 -111.5v467q-84 -17 -133 -74.5t-49 -140.5zM616 147q193 42 193 209q0 138 -193 244v-453z" />
<glyph unicode="%" horiz-adv-x="1675" d="M80 1073q0 183 99 286q93 97 245 97q150 0 234 -91q87 -95 87 -271q0 -172 -94 -275.5t-248 -103.5q-147 0 -235 98t-88 260zM213 1081q0 -120 54.5 -188t146.5 -68q94 0 147 70.5t53 194.5q0 125 -56 193q-53 63 -140 63q-94 0 -149.5 -70t-55.5 -195zM301 -10l920 1444 h143l-920 -1444h-143zM934 336q0 183 99 287q93 98 245 98q150 0 234 -92q87 -96 87 -273q0 -171 -94 -275t-248 -104q-147 0 -235 98t-88 261zM1067 344q0 -120 54 -187t147 -67q94 0 147 70.5t53 193.5q0 126 -56 193q-52 61 -140 61q-94 0 -149 -68q-56 -71 -56 -196z " />
<glyph unicode="&#x26;" horiz-adv-x="1446" d="M119 362q0 253 327 420q-155 198 -155 338q0 146 106 242t271 96q160 0 254 -90q88 -84 88 -209q0 -137 -80 -230q-72 -84 -244 -169q206 -217 375 -383q44 61 76 160q38 115 39 221h151q-2 -272 -172 -486q41 -40 270 -272h-229l-154 158q-194 -183 -469 -183 q-222 0 -346 122q-108 107 -108 265zM287 369q0 -115 81.5 -184.5t204.5 -69.5q221 0 375 141q-140 142 -409 426q-128 -65 -185 -130q-67 -76 -67 -183zM455 1120q0 -109 141 -266q254 122 254 291q0 79 -53 132q-52 50 -125 50q-103 0 -162 -61q-55 -57 -55 -146z" />
<glyph unicode="'" horiz-adv-x="469" d="M168 1434h135l-10 -447h-115z" />
<glyph unicode="(" horiz-adv-x="618" d="M139 547q0 520 312 887h147q-313 -380 -313 -885q0 -501 311 -875h-145q-312 354 -312 873z" />
<glyph unicode=")" horiz-adv-x="618" d="M23 1434h147q311 -367 311 -887q0 -519 -311 -873h-145q311 374 311 875q0 505 -313 885z" />
<glyph unicode="*" horiz-adv-x="854" d="M76 1104l45 125l262 -99l-23 304h138l-23 -304l262 99l43 -125l-274 -55l190 -244l-110 -76l-156 264l-158 -264l-110 76l190 244z" />
<glyph unicode="+" horiz-adv-x="1401" d="M231 530v134h404v403h133v-403h403v-134h-403v-403h-133v403h-404z" />
<glyph unicode="," horiz-adv-x="444" d="M39 -264l117 491h159l-159 -491h-117z" />
<glyph unicode="-" horiz-adv-x="819" d="M143 506v129h547v-129h-547z" />
<glyph unicode="." horiz-adv-x="444" d="M113 90q0 47 32 80t78 33q47 0 80 -33.5t33 -79.5t-33 -79.5t-80 -33.5q-46 0 -78 33.5t-32 79.5z" />
<glyph unicode="/" horiz-adv-x="799" d="M-29 -238l686 1672h156l-688 -1672h-154z" />
<glyph unicode="0" d="M86 688q0 399 138 595q124 175 345 175q451 0 451 -735q0 -380 -140 -574q-126 -174 -341 -174q-203 0 -320 164q-133 185 -133 549zM254 696q0 -581 301 -581q297 0 297 592q0 612 -291 612q-307 0 -307 -623z" />
<glyph unicode="1" d="M168 1159v156l496 151v-1323h323v-143h-811v143h324v1114z" />
<glyph unicode="2" d="M96 0v145l418 420q176 177 238 282q59 99 59 212q0 122 -71 191t-201 69q-193 0 -369 -164v172q60 50 158 87q117 44 233 44q200 0 310 -111q102 -103 102 -272q0 -142 -81 -278q-77 -130 -267 -318l-332 -327v-5h668v-147h-865z" />
<glyph unicode="3" d="M131 53v176q146 -114 332 -114q150 0 240 74.5t90 201.5q0 281 -400 281h-119v139h113q354 0 354 264q0 244 -270 244q-151 0 -285 -102v159q138 82 326 82q187 0 296 -101q101 -95 101 -241q0 -283 -286 -364v-4q150 -15 244 -107.5t94 -234.5q0 -193 -139 -312 t-365 -119q-204 0 -326 78z" />
<glyph unicode="4" d="M14 381v106l637 947h199v-920h184v-133h-184v-381h-162v381h-674zM193 514h495v621q0 64 4 147h-4q-15 -36 -55 -111z" />
<glyph unicode="5" d="M164 35v174q147 -94 299 -94q156 0 247 87t91 226q0 135 -88 214q-95 85 -279 85q5 0 -225 -12v719h694v-148h-538v-420q65 4 120 4q241 0 369 -127q115 -115 115 -305q0 -198 -125 -324q-138 -139 -383 -139q-199 0 -297 60z" />
<glyph unicode="6" d="M111 631q0 386 166 611q160 216 419 216q150 0 238 -41v-155q-111 57 -234 57q-191 0 -305 -170t-114 -455h4q99 203 327 203q187 0 298.5 -121t111.5 -321q0 -212 -127.5 -346t-323.5 -134q-210 0 -332 165q-128 174 -128 491zM291 469q0 -137 70 -238q80 -116 217 -116 q126 0 203 92q73 88 73 227q0 146 -69 232q-73 92 -210 92q-131 0 -212 -94q-72 -84 -72 -195z" />
<glyph unicode="7" d="M86 1286v148h924v-52l-568 -1382h-170l537 1286h-723z" />
<glyph unicode="8" d="M100 350q0 276 310 402v4q-258 119 -258 348q0 155 117.5 254.5t303.5 99.5q168 0 276.5 -93t108.5 -239q0 -238 -266 -370v-4q314 -113 314 -387q0 -175 -121 -279q-129 -111 -363 -111q-182 0 -302 104t-120 271zM268 358q0 -106 77 -173q80 -70 212 -70q127 0 206 69 q75 66 75 168q0 216 -295 322q-275 -109 -275 -316zM319 1108q0 -187 234 -283q238 98 238 281q0 102 -67 159q-62 54 -165 54q-100 0 -168 -58q-72 -60 -72 -153z" />
<glyph unicode="9" d="M94 979q0 213 130 346t331 133q195 0 311 -142q138 -169 138 -513q0 -415 -168 -631q-152 -197 -414 -197q-144 0 -250 50v157q120 -67 254 -67q194 0 303 155.5t109 446.5h-4q-91 -185 -320 -185q-184 0 -302 124t-118 323zM262 1001q0 -152 79 -237.5t210 -85.5 q116 0 196 79t80 193q0 166 -80 267.5t-206 101.5q-119 0 -199 -89.5t-80 -228.5z" />
<glyph unicode=":" horiz-adv-x="444" d="M113 90q0 47 32 80t78 33q47 0 80 -33.5t33 -79.5t-33 -79.5t-80 -33.5q-46 0 -78 33.5t-32 79.5zM113 936q0 46 32 78.5t78 32.5q47 0 80 -32.5t33 -78.5t-33 -79.5t-80 -33.5q-46 0 -78 33t-32 80z" />
<glyph unicode=";" horiz-adv-x="444" d="M39 -264l117 491h159l-159 -491h-117zM115 936q0 46 32 78.5t78 32.5q47 0 80 -32.5t33 -78.5t-33 -79.5t-80 -33.5q-46 0 -78 33t-32 80z" />
<glyph unicode="&#x3c;" horiz-adv-x="1401" d="M272 559v59l861 482v-150l-644 -356v-4l644 -314v-149z" />
<glyph unicode="=" horiz-adv-x="1401" d="M231 317v134h940v-134h-940zM231 743v134h940v-134h-940z" />
<glyph unicode="&#x3e;" horiz-adv-x="1401" d="M272 127v149l643 312v6l-643 356v150l861 -482v-59z" />
<glyph unicode="?" horiz-adv-x="918" d="M131 1186v176q153 96 318 96q172 0 273 -100q95 -95 95 -244q0 -206 -207 -381q-83 -71 -110 -111q-37 -57 -37 -145v-74h-152v78q0 103 42 178q37 67 126 140q176 143 176 301q0 96 -60 156q-63 63 -171 63q-168 0 -293 -133zM276 92q0 46 32.5 78.5t78.5 32.5 t78.5 -32.5t32.5 -78.5q0 -45 -32.5 -77.5t-78.5 -32.5t-78.5 32.5t-32.5 77.5z" />
<glyph unicode="@" horiz-adv-x="1956" d="M172 606q0 363 229 603q234 245 600 245q336 0 557 -196q230 -204 230 -525q0 -252 -125 -408q-115 -143 -279 -143q-219 0 -221 238h-4q-73 -238 -287 -238q-135 0 -218 98q-87 101 -87 275q0 220 110 367q117 157 310 157q73 0 129 -36.5t72 -92.5h4q1 28 10 115h125 q-47 -551 -47 -561q0 -207 119 -207q104 0 176 113q76 119 76 307q0 254 -151 424q-177 198 -507 198q-298 0 -491 -208t-193 -519q0 -302 179 -489q186 -195 503 -195q246 0 422 82v-125q-173 -73 -432 -73q-365 0 -589 222q-220 220 -220 572zM709 553q0 -120 53 -189 q51 -65 135 -65q130 0 202 133q66 122 66 318q0 215 -180 215q-130 0 -207 -129q-69 -116 -69 -283z" />
<glyph unicode="A" horiz-adv-x="1321" d="M23 0l548 1434h174l553 -1434h-186l-151 401h-609l-143 -401h-186zM408 553h497l-225 610q-9 25 -23 97h-4q-9 -61 -22 -97z" />
<glyph unicode="B" horiz-adv-x="1174" d="M188 0v1434h408q194 0 303 -98q100 -89 100 -230q0 -121 -65.5 -211t-181.5 -129v-4q146 -17 231 -107q88 -94 88 -243q0 -188 -137 -302q-131 -110 -328 -110h-418zM356 152h228q153 0 235 75q76 69 76 187q0 254 -346 254h-193v-516zM356 819h172q138 0 216.5 66.5 t78.5 187.5q0 209 -274 209h-193v-463z" />
<glyph unicode="C" horiz-adv-x="1268" d="M94 690q0 351 216 565q205 203 515 203q205 0 338 -59v-178q-153 86 -340 86q-242 0 -394 -159q-159 -166 -159 -448q0 -268 150 -424q142 -149 371 -149q216 0 372 96v-164q-158 -84 -395 -84q-308 0 -493 200q-181 196 -181 515z" />
<glyph unicode="D" horiz-adv-x="1436" d="M188 0v1434h396q757 0 757 -699q0 -327 -203 -528q-211 -207 -571 -207h-379zM356 152h213q284 0 440 151t156 428q0 551 -585 551h-224v-1130z" />
<glyph unicode="E" horiz-adv-x="1036" d="M188 0v1434h727v-152h-559v-477h518v-152h-518v-501h592v-152h-760z" />
<glyph unicode="F" horiz-adv-x="999" d="M188 0v1434h727v-152h-559v-496h518v-151h-518v-635h-168z" />
<glyph unicode="G" horiz-adv-x="1405" d="M94 698q0 335 213 549q209 211 531 211q233 0 393 -76v-186q-174 111 -412 111q-240 0 -393 -165q-156 -167 -156 -431q0 -280 150 -436q142 -148 381 -148q168 0 291 68v401h-314v152h482v-650q-216 -123 -480 -123q-304 0 -493 195q-193 199 -193 528z" />
<glyph unicode="H" horiz-adv-x="1454" d="M188 0v1434h168v-629h742v629h168v-1434h-168v653h-742v-653h-168z" />
<glyph unicode="I" horiz-adv-x="545" d="M188 0v1434h168v-1434h-168z" />
<glyph unicode="&#x406;" horiz-adv-x="545" d="M188 0v1434h168v-1434h-168z" />
<glyph unicode="J" horiz-adv-x="731" d="M20 0v166q53 -39 140 -39q227 0 227 385v922h168v-920q0 -265 -117 -409q-106 -130 -280 -130q-83 0 -138 25z" />
<glyph unicode="&#x408;" horiz-adv-x="731" d="M20 0v166q53 -39 140 -39q227 0 227 385v922h168v-920q0 -265 -117 -409q-106 -130 -280 -130q-83 0 -138 25z" />
<glyph unicode="K" horiz-adv-x="1188" d="M188 0v1434h168v-674h4q14 21 37 49l537 625h209l-615 -689l658 -745h-234l-555 655q-22 27 -37 52h-4v-707h-168z" />
<glyph unicode="L" horiz-adv-x="965" d="M188 0v1434h168v-1282h576v-152h-744z" />
<glyph unicode="M" horiz-adv-x="1839" d="M188 0v1434h222l440 -1000q50 -113 65 -172h7q43 118 69 176l449 996h211v-1434h-168v963q0 114 14 278h-4q-24 -96 -43 -139l-489 -1102h-82l-490 1094q-21 46 -43 147h-4q8 -86 8 -280v-961h-162z" />
<glyph unicode="N" horiz-adv-x="1532" d="M188 0v1434h218l718 -1125q43 -67 58 -96h4q-10 62 -10 211v1010h167v-1434h-204l-740 1143q-26 41 -45 90h-6q8 -46 8 -197v-1036h-168z" />
<glyph unicode="O" horiz-adv-x="1544" d="M94 700q0 338 179 543q187 215 518 215q296 0 477.5 -200t181.5 -523q0 -352 -188 -558q-185 -202 -496 -202q-308 0 -493 206q-179 200 -179 519zM270 715q0 -268 140 -430q136 -158 356 -158q232 0 367 149q141 155 141 437q0 287 -136 444q-131 150 -360 150 q-225 0 -366.5 -164t-141.5 -428z" />
<glyph unicode="P" horiz-adv-x="1147" d="M188 0v1434h394q232 0 359 -114q124 -112 124 -314q0 -195 -129 -323q-142 -140 -391 -140h-189v-543h-168zM356 694h176q174 0 266 81q91 78 91 222q0 285 -336 285h-197v-588z" />
<glyph unicode="Q" horiz-adv-x="1544" d="M94 700q0 334 174 538q188 220 527 220q291 0 473 -200t182 -523q0 -296 -134 -490t-380 -249l334 -348h-232l-282 327q-299 2 -481 205q-181 200 -181 520zM270 715q0 -268 140 -430q136 -158 356 -158q232 0 367 149q141 155 141 437q0 287 -136 444q-131 150 -360 150 q-225 0 -366.5 -164t-141.5 -428z" />
<glyph unicode="R" horiz-adv-x="1178" d="M188 0v1434h428q212 0 328 -109q109 -102 109 -272q0 -155 -87.5 -259.5t-232.5 -138.5v-4q80 -28 148 -170l229 -481h-201l-188 432q-78 178 -219 178h-146v-610h-168zM356 762h222q133 0 216 76.5t83 199.5q0 114 -75 179t-216 65h-230v-520z" />
<glyph unicode="S" horiz-adv-x="1018" d="M121 57v199q67 -60 168 -96q94 -33 178 -33q276 0 276 215q0 93 -70 165q-62 63 -231 159q-177 100 -248 192t-71 217q0 165 121 272q127 111 334 111q193 0 282 -51v-188q-113 88 -291 88q-126 0 -200 -64q-70 -60 -70 -153q0 -100 64 -167q54 -56 215 -145 q176 -97 254 -187q88 -101 88 -229q0 -167 -111 -270q-126 -117 -365 -117q-80 0 -178 25t-145 57z" />
<glyph unicode="T" horiz-adv-x="1073" d="M41 1282v152h995v-152h-413v-1282h-168v1282h-414z" />
<glyph unicode="U" horiz-adv-x="1407" d="M170 557v877h168v-867q0 -440 373 -440q358 0 358 426v881h168v-854q0 -605 -545 -605q-522 0 -522 582z" />
<glyph unicode="V" horiz-adv-x="1272" d="M18 1434h187l397 -1137q19 -54 29 -127h4q8 61 33 129l405 1135h180l-530 -1434h-184z" />
<glyph unicode="W" horiz-adv-x="1913" d="M27 1434h184l305 -1100q19 -68 25 -144h4q4 53 30 144l318 1100h162l303 -1108q16 -61 24 -133h4q4 51 27 137l293 1104h182l-405 -1434h-197l-295 1049q-19 68 -22 145h-4q-7 -74 -27 -143l-297 -1051h-195z" />
<glyph unicode="X" horiz-adv-x="1208" d="M27 0l479 721l-443 713h207l293 -504q30 -52 51 -101h4q32 66 56 105l305 500h192l-450 -711l457 -723h-205l-330 549q-15 25 -33 72h-4q-10 -24 -35 -72l-340 -549h-204z" />
<glyph unicode="Y" horiz-adv-x="1133" d="M18 1434h191l321 -648q14 -33 35 -88h2q11 34 39 88l336 648h178l-473 -904v-530h-168v526z" />
<glyph unicode="Z" horiz-adv-x="1167" d="M33 0v47l833 1235h-766v152h1024v-39l-839 -1243h819v-152h-1071z" />
<glyph unicode="[" horiz-adv-x="618" d="M201 -326v1760h366v-119h-221v-1522h221v-119h-366z" />
<glyph unicode="\" horiz-adv-x="776" d="M-27 1434h156l670 -1674h-152z" />
<glyph unicode="]" horiz-adv-x="618" d="M53 -207h221v1522h-221v119h367v-1760h-367v119z" />
<glyph unicode="^" horiz-adv-x="1401" d="M229 625l422 833h66l457 -833h-150l-332 618h-6l-309 -618h-148z" />
<glyph unicode="_" horiz-adv-x="850" d="M0 -178h850v-119h-850v119z" />
<glyph unicode="`" horiz-adv-x="549" d="M82 1546h168l221 -327h-127z" />
<glyph unicode="a" horiz-adv-x="1034" d="M82 272q0 287 338 334l307 43q0 260 -211 260q-185 0 -334 -125v168q47 34 145 64q109 33 203 33q361 0 361 -383v-666h-164v160h-4q-107 -185 -315 -185q-156 0 -243 86q-83 81 -83 211zM250 285q0 -74 52.5 -122t143.5 -48q124 0 202.5 86t78.5 215v102l-248 -35 q-135 -19 -185 -67q-44 -42 -44 -131z" />
<glyph unicode="b" horiz-adv-x="1196" d="M166 0v1516h164v-672h4q121 205 354 205q204 0 316 -148q104 -136 104 -358q0 -250 -119 -404q-126 -164 -348 -164q-202 0 -307 172h-4v-147h-164zM330 418q0 -124 79 -211q84 -92 214 -92q146 0 230 110q87 114 87 320q0 170 -79 267t-214 97q-148 0 -237 -106 q-80 -98 -80 -242v-143z" />
<glyph unicode="c" horiz-adv-x="938" d="M88 487q0 252 144.5 407t388.5 155q134 0 237 -52v-168q-114 80 -244 80q-156 0 -255 -109q-103 -112 -103 -298q0 -179 94.5 -283t253.5 -104q134 0 252 88v-156q-118 -72 -281 -72q-220 0 -355 146q-132 142 -132 366z" />
<glyph unicode="d" horiz-adv-x="1198" d="M88 487q0 256 128 409t341 153q210 0 307 -166h4v633h164v-1516h-164v174h-4q-114 -199 -352 -199q-189 0 -304 134q-120 138 -120 378zM256 496q0 -185 89 -287q82 -94 214 -94q140 0 227 102q82 98 82 246v151q0 123 -80 207q-83 88 -210 88q-150 0 -236 -109.5 t-86 -303.5z" />
<glyph unicode="e" horiz-adv-x="1055" d="M88 508q0 247 143 399q134 142 328 142q208 0 318 -139q104 -130 104 -353v-86h-723q4 -172 92 -264t242 -92q173 0 317 112v-153q-134 -99 -356 -99q-210 0 -333 132q-132 140 -132 401zM260 610h553q-2 140 -66 218q-67 81 -190 81q-116 0 -197 -82.5t-100 -216.5z" />
<glyph unicode="f" horiz-adv-x="641" d="M53 885v139h174v166q0 169 105 265q90 83 221 83q76 0 119 -18v-148q-48 27 -109 27q-172 0 -172 -217v-158h240v-139h-240v-885h-164v885h-174z" />
<glyph unicode="g" horiz-adv-x="1198" d="M88 479q0 259 124 412q126 158 345 158q207 0 307 -166h4v141h164v-942q0 -563 -540 -563q-190 0 -332 71v164q173 -96 329 -96q379 0 379 401v113h-4q-117 -197 -352 -197q-189 0 -305 135q-119 137 -119 369zM256 489q0 -170 82.5 -272t218.5 -102q138 0 224.5 97.5 t86.5 250.5v151q0 120 -80 206q-83 89 -208 89q-151 0 -236 -107q-88 -110 -88 -313z" />
<glyph unicode="h" horiz-adv-x="1159" d="M166 0v1516h164v-662h4q119 195 336 195q346 0 346 -418v-631h-164v590q0 319 -238 319q-119 0 -200 -89q-84 -93 -84 -240v-580h-164z" />
<glyph unicode="i" horiz-adv-x="496" d="M143 1391q0 45 31.5 75.5t75.5 30.5q45 0 76.5 -30.5t31.5 -75.5t-31.5 -76t-76.5 -31q-44 0 -75.5 30t-31.5 77zM166 0v1024h164v-1024h-164z" />
<glyph unicode="&#x456;" horiz-adv-x="496" d="M143 1391q0 45 31.5 75.5t75.5 30.5q45 0 76.5 -30.5t31.5 -75.5t-31.5 -76t-76.5 -31q-44 0 -75.5 30t-31.5 77zM166 0v1024h164v-1024h-164z" />
<glyph unicode="j" horiz-adv-x="496" d="M-199 -297q75 -45 142 -45q223 0 223 358v1008h164v-981q0 -257 -105 -393q-101 -131 -286 -131q-72 0 -138 30v154zM143 1391q0 45 31.5 75.5t75.5 30.5q45 0 76.5 -30.5t31.5 -75.5t-31.5 -76t-76.5 -31q-44 0 -75.5 30t-31.5 77z" />
<glyph unicode="&#x458;" horiz-adv-x="496" d="M-199 -297q75 -45 142 -45q223 0 223 358v1008h164v-981q0 -257 -105 -393q-101 -131 -286 -131q-72 0 -138 30v154zM143 1391q0 45 31.5 75.5t75.5 30.5q45 0 76.5 -30.5t31.5 -75.5t-31.5 -76t-76.5 -31q-44 0 -75.5 30t-31.5 77z" />
<glyph unicode="k" horiz-adv-x="1018" d="M166 0v1516h164v-961h4l430 469h215l-475 -494l512 -530h-230l-452 492h-4v-492h-164z" />
<glyph unicode="l" horiz-adv-x="496" d="M166 0v1516h164v-1516h-164z" />
<glyph unicode="m" horiz-adv-x="1763" d="M166 0v1024h164v-162h4q109 187 317 187q106 0 186 -60q76 -58 105 -153q114 213 340 213q338 0 338 -418v-631h-164v588q0 177 -57 252q-53 69 -172 69q-106 0 -179 -95.5t-73 -229.5v-584h-164v608q0 301 -233 301q-107 0 -176 -88q-72 -91 -72 -237v-584h-164z" />
<glyph unicode="n" horiz-adv-x="1159" d="M166 0v1024h164v-170h4q115 195 336 195q169 0 257.5 -110t88.5 -312v-627h-164v584q0 325 -238 325q-123 0 -203.5 -92t-80.5 -233v-584h-164z" />
<glyph unicode="o" horiz-adv-x="1184" d="M88 500q0 267 150 413q139 136 372 136q229 0 357.5 -142t128.5 -391q0 -245 -138 -393t-372 -148q-231 0 -366 148q-132 143 -132 377zM256 506q0 -184 93 -287.5t249 -103.5q162 0 247 105q83 102 83 290q0 197 -89 300q-86 99 -241 99q-153 0 -245 -100 q-97 -107 -97 -303z" />
<glyph unicode="p" horiz-adv-x="1196" d="M166 -471v1495h164v-180h4q121 205 354 205q204 0 316 -148q104 -136 104 -358q0 -251 -119 -405q-126 -163 -348 -163q-202 0 -307 172h-4v-618h-164zM330 418q0 -124 79 -211q84 -92 214 -92q146 0 230 110q87 114 87 320q0 170 -79 267t-214 97q-148 0 -237 -106 q-80 -98 -80 -242v-143z" />
<glyph unicode="q" horiz-adv-x="1198" d="M88 487q0 258 129 410t342 152q210 0 305 -166h4v141h164v-1495h-164v647h-4q-107 -201 -350 -201q-189 0 -305 132q-121 138 -121 380zM256 492q0 -191 96 -292q80 -85 201 -85q148 0 236 105q79 97 79 241v149q0 123 -79 209q-84 90 -214 90q-144 0 -229 -104 q-90 -110 -90 -313z" />
<glyph unicode="r" horiz-adv-x="713" d="M166 0v1024h164v-211h4q36 112 111 173q70 56 157 56q65 0 98 -14v-170q-43 33 -125 33q-100 0 -168 -90q-77 -101 -77 -279v-522h-164z" />
<glyph unicode="s" horiz-adv-x="799" d="M96 37v176q120 -98 266 -98q195 0 195 143q0 60 -43 99t-168 94q-129 56 -183 116q-65 71 -65 185q0 128 101 212.5t260 84.5q122 0 219 -48v-165q-101 73 -232 73q-82 0 -131 -40t-49 -103q0 -68 41 -106q37 -35 154 -85q131 -55 189 -113q75 -74 75 -188 q0 -126 -94 -209q-103 -90 -281 -90q-146 0 -254 62z" />
<glyph unicode="t" horiz-adv-x="694" d="M43 885v139h176v250q78 25 164 53v-303h258v-139h-258v-578q0 -103 35 -146.5t117 -43.5q61 0 106 33v-140q-58 -33 -154 -33q-268 0 -268 302v606h-176z" />
<glyph unicode="u" horiz-adv-x="1159" d="M143 412v612h164v-586q0 -323 248 -323q119 0 196.5 86.5t77.5 232.5v590h164v-1024h-164v162h-4q-102 -187 -315 -187q-367 0 -367 437z" />
<glyph unicode="v" horiz-adv-x="981" d="M14 1024h181l260 -743q27 -80 34 -144h5q9 76 32 139l273 748h172l-408 -1024h-162z" />
<glyph unicode="w" horiz-adv-x="1481" d="M25 1024h172l211 -770q10 -40 14 -92h8q3 43 19 94l235 768h150l213 -772q10 -37 14 -92h8q2 39 16 92l209 772h162l-307 -1024h-170l-211 733q-11 40 -16 94h-4q-3 -35 -21 -92l-229 -735h-164z" />
<glyph unicode="x" horiz-adv-x="940" d="M27 0l348 502l-334 522h190l199 -350q18 -31 43 -80h4q3 5 47 80l209 350h180l-344 -518l338 -506h-190l-201 332q-16 26 -45 78h-4q-4 -9 -47 -78l-205 -332h-188z" />
<glyph unicode="y" horiz-adv-x="991" d="M14 1024h183l276 -788q8 -22 21 -78h6q5 24 20 75l291 791h170l-471 -1188q-126 -317 -354 -317q-64 0 -107 12v147q53 -18 96 -18q125 0 187 147l82 195z" />
<glyph unicode="z" horiz-adv-x="926" d="M33 0v51l606 834h-549v139h791v-47l-607 -838h600v-139h-841z" />
<glyph unicode="{" horiz-adv-x="618" d="M92 496v116q156 10 156 215v293q0 310 307 314v-127q-160 -4 -160 -199v-293q0 -210 -149 -258v-4q149 -46 149 -256v-289q0 -112 37.5 -159.5t122.5 -49.5v-125q-307 4 -307 310v301q0 202 -156 211z" />
<glyph unicode="|" horiz-adv-x="489" d="M172 -481v2048h147v-2048h-147z" />
<glyph unicode="}" horiz-adv-x="618" d="M66 -201q85 2 122 49.5t37 159.5v289q0 210 150 256v4q-150 48 -150 258v293q0 195 -159 199v127q307 -4 307 -314v-293q0 -205 155 -215v-116q-155 -9 -155 -211v-301q0 -306 -307 -310v125z" />
<glyph unicode="~" horiz-adv-x="1401" d="M209 440q6 140 76 223q74 87 204 87q107 0 236 -88q132 -91 197 -91q61 0 98 49.5t39 129.5h135q-5 -139 -74 -221q-75 -89 -207 -89q-108 0 -264 109q-97 67 -160 67q-139 0 -145 -176h-135z" />
<glyph unicode="&#xa0;" horiz-adv-x="561" d="M0 0z" />
<glyph unicode="&#xa1;" horiz-adv-x="582" d="M180 936q0 46 32.5 78.5t78.5 32.5q45 0 77.5 -32.5t32.5 -78.5t-32.5 -78.5t-77.5 -32.5q-46 0 -78.5 32.5t-32.5 78.5zM207 -406l18 1031h135l19 -1031h-172z" />
<glyph unicode="&#xa2;" d="M184 649q0 222 118 371q114 144 304 180v213h125v-203q123 -2 221 -51v-172q-101 71 -221 78v-784q122 12 221 86v-158q-96 -59 -221 -70v-188h-125v190q-193 22 -307.5 162t-114.5 346zM352 666q0 -151 68 -249.5t186 -125.5v762q-116 -31 -184 -131q-70 -103 -70 -256z " />
<glyph unicode="&#xa3;" d="M106 0v135q218 69 218 314v186h-197v141h197v254q0 188 108.5 308t282.5 120q117 0 213 -41v-155q-100 57 -211 57q-230 0 -230 -307v-236h297v-141h-297v-156q0 -242 -192 -340h711v-139h-900z" />
<glyph unicode="&#xa4;" horiz-adv-x="1139" d="M100 354l138 133q-76 114 -76 238q0 129 76 238l-138 135l93 96l137 -137q110 78 239 78q130 0 238 -78l139 137l92 -96l-137 -135q78 -113 78 -238q0 -122 -78 -238l137 -133l-92 -96l-137 137q-105 -76 -240 -76t-239 76l-137 -137zM295 727q0 -113 80.5 -193.5 t193.5 -80.5q114 0 195.5 80.5t81.5 193.5q0 116 -86 197q-83 77 -191 77q-115 0 -194.5 -80.5t-79.5 -193.5z" />
<glyph unicode="&#xa5;" d="M68 1434h192l250 -514q30 -63 47 -111h4q12 42 49 117l252 508h180l-356 -656h285v-139h-334v-207h334v-139h-334v-293h-164v293h-344v139h344v207h-344v139h291z" />
<glyph unicode="&#xa6;" horiz-adv-x="489" d="M172 371h147v-852h-147v852zM172 715v852h147v-852h-147z" />
<glyph unicode="&#xa7;" horiz-adv-x="918" d="M131 733q0 163 148 244q-107 83 -107 223q0 122 86 203q94 88 254 88q129 0 219 -43v-158q-101 62 -223 62q-168 0 -168 -144q0 -68 61 -119q47 -39 183 -104q223 -107 223 -293q0 -170 -150 -276q91 -74 91 -187q0 -131 -100.5 -213t-254.5 -82q-131 0 -239 56v157 q131 -73 249 -73q90 0 137 45q40 38 40 94q0 72 -76 127q-17 12 -139 76q-234 122 -234 317zM297 745q0 -73 59 -128q55 -52 195 -115q88 68 88 172q0 72 -53 122.5t-189 108.5q-100 -51 -100 -160z" />
<glyph unicode="&#xa8;" horiz-adv-x="848" d="M125 1317q0 42 29 70t69 28q42 0 71.5 -28.5t29.5 -69.5t-28.5 -69.5t-70.5 -28.5q-40 0 -70 28t-30 70zM512 1317q0 42 28 70t68 28q42 0 71.5 -28.5t29.5 -69.5t-28.5 -69.5t-70.5 -28.5q-40 0 -69 28t-29 70z" />
<glyph unicode="&#xa9;" horiz-adv-x="1823" d="M162 713q0 314 216 529.5t537 215.5q315 0 529 -206q219 -211 219 -533q0 -315 -217.5 -529.5t-536.5 -214.5q-322 0 -534.5 209t-212.5 529zM250 715q0 -279 195 -470q191 -188 468 -188q274 0 467 190.5t193 467.5q0 283 -192 472t-468 189q-286 0 -474.5 -190.5 t-188.5 -470.5zM453 692q0 252 151 401q144 140 369 140q132 0 235 -53v-150q-94 72 -254 72q-148 0 -248 -97q-110 -108 -110 -296q0 -175 109 -281q102 -100 258 -100q146 0 249 73v-135q-113 -69 -268 -69q-209 0 -350 141t-141 354z" />
<glyph unicode="&#xaa;" horiz-adv-x="803" d="M82 909q0 203 248 236l229 31q0 167 -151 167q-135 0 -254 -86v129q111 70 266 70q126 0 197 -72.5t71 -201.5v-465h-129v100h-4q-79 -119 -231 -119q-112 0 -179 62q-63 58 -63 149zM211 915q0 -50 38.5 -82t102.5 -32q80 0 143.5 60.5t63.5 146.5v67l-180 -24 q-168 -23 -168 -136z" />
<glyph unicode="&#xab;" horiz-adv-x="1036" d="M92 537l299 344h166l-303 -344l303 -336h-166zM479 537l299 344h170l-307 -344l305 -336h-168z" />
<glyph unicode="&#xac;" horiz-adv-x="1401" d="M231 684v133h940v-563h-131v430h-809z" />
<glyph unicode="&#xad;" horiz-adv-x="819" d="M143 506v129h547v-129h-547z" />
<glyph unicode="&#xae;" horiz-adv-x="1823" d="M162 713q0 314 216 529.5t537 215.5q315 0 529 -206q219 -211 219 -533q0 -315 -217.5 -529.5t-536.5 -214.5q-322 0 -534.5 209t-212.5 529zM250 715q0 -279 195 -470q191 -188 468 -188q274 0 467 190.5t193 467.5q0 283 -192 472t-468 189q-286 0 -474.5 -190.5 t-188.5 -470.5zM618 248v954h269q178 0 270 -80q78 -69 78 -180q0 -98 -63.5 -167t-178.5 -93v-4q80 -18 158 -176l125 -254h-162l-104 229q-79 172 -170 172h-88v-401h-134zM752 762h143q197 0 197 164q0 82 -46 119q-52 42 -176 42h-118v-325z" />
<glyph unicode="&#xaf;" horiz-adv-x="850" d="M0 1731h850v-119h-850v119z" />
<glyph unicode="&#xb0;" horiz-adv-x="772" d="M109 1176q0 115 79.5 194.5t194.5 79.5q116 0 197.5 -79.5t81.5 -194.5q0 -116 -81 -197.5t-196 -81.5t-195.5 81.5t-80.5 197.5zM227 1176q0 -67 45.5 -114.5t110.5 -47.5t112.5 47.5t47.5 114.5q0 65 -46.5 111t-111.5 46t-111.5 -46t-46.5 -111z" />
<glyph unicode="&#xb1;" horiz-adv-x="1401" d="M231 0v133h940v-133h-940zM231 651v133h406v404h131v-404h403v-133h-403v-403h-131v403h-406z" />
<glyph unicode="&#xb2;" horiz-adv-x="692" d="M74 584v114l239 236q44 43 73 76.5t46 56.5q41 65 41 133q0 29 -10 53t-28 41t-43 27t-56 10q-115 0 -217 -102v149q42 39 101 57.5t134 18.5q120 0 189 -68q67 -64 67 -172q0 -77 -50.5 -164t-153.5 -184l-164 -155v-4h385v-123h-553z" />
<glyph unicode="&#xb3;" horiz-adv-x="692" d="M76 616v142q51 -38 105.5 -57t111.5 -19q82 0 127 39t45 100q0 142 -219 142h-84v116h80q196 0 196 135q0 119 -143 119q-96 0 -186 -69v139q45 26 97.5 38.5t115.5 12.5q118 0 186 -65q31 -29 46 -67t15 -83q0 -152 -145 -205v-4q176 -44 176 -203q0 -115 -82 -188 q-85 -76 -229 -76q-69 0 -122 13.5t-91 39.5z" />
<glyph unicode="&#xb4;" horiz-adv-x="578" d="M135 1219l223 327h166l-262 -327h-127z" />
<glyph unicode="&#xb5;" horiz-adv-x="1180" d="M166 -391v1415h164v-582q0 -327 243 -327q120 0 197 83q82 90 82 242v584h164v-1024h-164v143h-4q-82 -168 -285 -168q-158 0 -229 119h-4v-485h-164z" />
<glyph unicode="&#xb6;" horiz-adv-x="938" d="M84 1169q0 120 79 195q73 70 177 70h494v-103h-127v-1331h-107v1331h-158v-1331h-108v903q-105 0 -177.5 74.5t-72.5 191.5z" />
<glyph unicode="&#xb7;" horiz-adv-x="444" d="M113 623q0 46 32 79t78 33q47 0 80 -33t33 -79q0 -47 -33 -80t-80 -33q-46 0 -78 33t-32 80z" />
<glyph unicode="&#xb8;" horiz-adv-x="420" d="M51 -340q42 -6 70 -6q141 0 141 90q0 78 -129 78q-1 0 -41 -4v182h109v-104q86 0 138 -40.5t52 -111.5q0 -176 -274 -176q-39 0 -66 2v90z" />
<glyph unicode="&#xb9;" horiz-adv-x="692" d="M117 1235v125l323 96v-760h189v-112h-504v112h184v594z" />
<glyph unicode="&#xba;" horiz-adv-x="883" d="M78 1069q0 186 109 290q101 95 266 95q162 0 256 -98.5t94 -272.5q0 -176 -99.5 -281.5t-267.5 -105.5q-171 0 -266 104q-92 100 -92 269zM213 1073q0 -124 59.5 -194t169.5 -70q106 0 167 72.5t61 193.5q0 129 -61 200q-60 68 -165 68q-104 0 -166 -68q-65 -72 -65 -202 z" />
<glyph unicode="&#xbb;" horiz-adv-x="1036" d="M90 201l307 338l-307 342h170l299 -342l-299 -338h-170zM481 201l303 338l-303 342h166l301 -342l-301 -338h-166z" />
<glyph unicode="&#xbc;" horiz-adv-x="1710" d="M117 1235v125l323 96v-760h189v-112h-504v112h184v594zM342 0l877 1434h145l-875 -1434h-147zM936 205v92l369 553h155v-537h111v-108h-111v-205h-131v205h-393zM1073 313h256v324q0 17 1 38.5t3 49.5h-4q-6 -15 -15.5 -33.5t-23.5 -40.5z" />
<glyph unicode="&#xbd;" horiz-adv-x="1710" d="M117 1235v125l323 96v-760h189v-112h-504v112h184v594zM342 0l877 1434h145l-875 -1434h-147zM1090 0v115l239 235q43 44 72.5 77t46.5 56q41 65 41 133q0 29 -10 53t-28 41.5t-43 27.5t-56 10q-116 0 -217 -103v150q42 38 101 56.5t134 18.5q118 0 189 -67 q67 -64 67 -172q0 -156 -205 -348l-164 -156v-4h385v-123h-552z" />
<glyph unicode="&#xbe;" horiz-adv-x="1599" d="M84 608v119q50 -29 100 -45t101 -16q85 0 131.5 41t46.5 110q0 148 -211 148h-86v106h78q100 0 146 39t46 111q0 58 -35.5 90t-107.5 32q-42 0 -86 -14t-92 -39v113q45 20 96 33.5t108 13.5q58 0 103 -15t76.5 -42.5t48 -66t16.5 -85.5q0 -74 -34 -129.5t-111 -81.5v-4 q44 -9 76.5 -29.5t53.5 -48.5t31.5 -61.5t10.5 -69.5q0 -56 -21 -103t-60.5 -81.5t-95.5 -54t-126 -19.5q-59 0 -109.5 14t-93.5 35zM344 0l875 1434h147l-874 -1434h-148zM946 205v88l367 557h143v-543h109v-102h-109v-205h-125v205h-385zM1065 307h266v336v13v24 q0 14 0.5 25.5t1.5 13.5h-6q-15 -29 -26 -49.5t-17 -28.5z" />
<glyph unicode="&#xbf;" horiz-adv-x="918" d="M104 -84q0 211 203 383q94 80 122 128t28 126v74h151v-78q0 -103 -42 -178q-38 -66 -128 -140q-178 -145 -178 -301q0 -95 63.5 -158t172.5 -63q165 0 290 133v-176q-155 -98 -315 -98q-172 0 -272 102q-95 96 -95 246zM424 936q0 46 32.5 78.5t78.5 32.5q45 0 78.5 -33 t33.5 -78t-33.5 -78t-78.5 -33q-46 0 -78.5 32.5t-32.5 78.5z" />
<glyph unicode="&#xc0;" horiz-adv-x="1321" d="M23 0l548 1434h174l553 -1434h-186l-151 401h-609l-143 -401h-186zM408 553h497l-225 610q-9 25 -23 97h-4q-9 -61 -22 -97zM369 1894h168l221 -327h-127z" />
<glyph unicode="&#xc1;" horiz-adv-x="1321" d="M23 0l548 1434h174l553 -1434h-186l-151 401h-609l-143 -401h-186zM408 553h497l-225 610q-9 25 -23 97h-4q-9 -61 -22 -97zM478 1567l223 327h166l-262 -327h-127z" />
<glyph unicode="&#xc2;" horiz-adv-x="1321" d="M23 0l548 1434h174l553 -1434h-186l-151 401h-609l-143 -401h-186zM408 553h497l-225 610q-9 25 -23 97h-4q-9 -61 -22 -97zM363 1566l215 331h133l215 -331h-120l-164 229l-166 -229h-113z" />
<glyph unicode="&#xc3;" horiz-adv-x="1321" d="M23 0l548 1434h174l553 -1434h-186l-151 401h-609l-143 -401h-186zM408 553h497l-225 610q-9 25 -23 97h-4q-9 -61 -22 -97zM336 1547q0 103 44 167q49 69 138 69q66 0 150 -52q74 -45 127 -45q84 0 84 117h98q0 -99 -43 -165q-49 -72 -135 -72q-71 0 -162 51 q-77 43 -119 43q-88 0 -88 -113h-94z" />
<glyph unicode="&#xc4;" horiz-adv-x="1321" d="M23 0l548 1434h174l553 -1434h-186l-151 401h-609l-143 -401h-186zM408 553h497l-225 610q-9 25 -23 97h-4q-9 -61 -22 -97zM355 1664q0 42 29 70t69 28q42 0 71.5 -28.5t29.5 -69.5t-28.5 -69.5t-70.5 -28.5q-40 0 -70 28t-30 70zM742 1664q0 42 28 70t68 28 q42 0 71.5 -28.5t29.5 -69.5t-28.5 -69.5t-70.5 -28.5q-40 0 -69 28t-29 70z" />
<glyph unicode="&#xc5;" horiz-adv-x="1321" d="M23 0l528 1378q-100 51 -100 164q0 90 60.5 144.5t150.5 54.5q88 0 144 -54t56 -139q0 -112 -96 -166l532 -1382h-186l-151 401h-609l-143 -401h-186zM408 553h497l-225 610q-9 25 -23 97h-4q-9 -61 -22 -97zM543 1548q0 -114 112 -114q49 0 82 33t33 81q0 49 -33 80 t-82 31t-80.5 -31.5t-31.5 -79.5z" />
<glyph unicode="&#xc6;" horiz-adv-x="1761" d="M10 0l701 1434h923v-152h-559v-477h518v-152h-518v-501h592v-152h-760v401h-510l-192 -401h-195zM467 553h440v729h-94z" />
<glyph unicode="&#xc7;" horiz-adv-x="1268" d="M94 690q0 351 216 565q204 203 515 203q205 0 338 -59v-178q-153 86 -340 86q-242 0 -394 -159q-159 -166 -159 -448q0 -268 150 -424q142 -149 371 -149q216 0 372 96v-164q-167 -84 -391 -84v-79q86 0 137.5 -40t51.5 -112q0 -176 -275 -176q-39 0 -65 2v90 q42 -6 69 -6q141 0 141 90q0 78 -129 78q-2 0 -40 -4v164q-263 34 -416 228q-152 191 -152 480z" />
<glyph unicode="&#xc8;" horiz-adv-x="1036" d="M188 0v1434h727v-152h-559v-477h518v-152h-518v-501h592v-152h-760zM314 1894h168l221 -327h-127z" />
<glyph unicode="&#xc9;" horiz-adv-x="1036" d="M188 0v1434h727v-152h-559v-477h518v-152h-518v-501h592v-152h-760zM414 1564l223 327h166l-262 -327h-127z" />
<glyph unicode="&#xca;" horiz-adv-x="1036" d="M188 0v1434h727v-152h-559v-477h518v-152h-518v-501h592v-152h-760zM263 1568l215 331h133l215 -331h-120l-164 229l-166 -229h-113z" />
<glyph unicode="&#xcb;" horiz-adv-x="1036" d="M188 0v1434h727v-152h-559v-477h518v-152h-518v-501h592v-152h-760zM264 1665q0 42 29 70t69 28q42 0 71.5 -28.5t29.5 -69.5t-28.5 -69.5t-70.5 -28.5q-40 0 -70 28t-30 70zM651 1665q0 42 28 70t68 28q42 0 71.5 -28.5t29.5 -69.5t-28.5 -69.5t-70.5 -28.5 q-40 0 -69 28t-29 70z" />
<glyph unicode="&#xcc;" horiz-adv-x="545" d="M188 0v1434h168v-1434h-168zM28 1894h168l221 -327h-127z" />
<glyph unicode="&#xcd;" horiz-adv-x="545" d="M188 0v1434h168v-1434h-168zM121 1567l223 327h166l-262 -327h-127z" />
<glyph unicode="&#xce;" horiz-adv-x="545" d="M188 0v1434h168v-1434h-168zM-3 1568l215 331h133l215 -331h-120l-164 229l-166 -229h-113z" />
<glyph unicode="&#xcf;" horiz-adv-x="545" d="M188 0v1434h168v-1434h-168zM-14 1665q0 42 29 70t69 28q42 0 71.5 -28.5t29.5 -69.5t-28.5 -69.5t-70.5 -28.5q-40 0 -70 28t-30 70zM373 1665q0 42 28 70t68 28q42 0 71.5 -28.5t29.5 -69.5t-28.5 -69.5t-70.5 -28.5q-40 0 -69 28t-29 70z" />
<glyph unicode="&#xd0;" horiz-adv-x="1436" d="M29 641v156h159v637h396q757 0 757 -699q0 -331 -206 -531q-211 -204 -568 -204h-379v641h-159zM356 152h213q283 0 439.5 151t156.5 428q0 551 -585 551h-224v-485h336v-156h-336v-489z" />
<glyph unicode="&#xd1;" horiz-adv-x="1532" d="M188 0v1434h218l718 -1125q43 -67 58 -96h4q-10 62 -10 211v1010h167v-1434h-204l-740 1143q-26 41 -45 90h-6q8 -46 8 -197v-1036h-168zM472 1547q0 103 44 167q49 69 138 69q66 0 150 -52q74 -45 127 -45q84 0 84 117h98q0 -99 -43 -165q-49 -72 -135 -72 q-71 0 -162 51q-77 43 -119 43q-88 0 -88 -113h-94z" />
<glyph unicode="&#xd2;" horiz-adv-x="1544" d="M94 700q0 338 179 543q187 215 518 215q296 0 477.5 -200t181.5 -523q0 -352 -188 -558q-185 -202 -496 -202q-308 0 -493 206q-179 200 -179 519zM270 715q0 -268 140 -430q136 -158 356 -158q232 0 367 149q141 155 141 437q0 287 -136 444q-131 150 -360 150 q-225 0 -366.5 -164t-141.5 -428zM491 1894h168l221 -327h-127z" />
<glyph unicode="&#xd3;" horiz-adv-x="1544" d="M94 700q0 338 179 543q187 215 518 215q296 0 477.5 -200t181.5 -523q0 -352 -188 -558q-185 -202 -496 -202q-308 0 -493 206q-179 200 -179 519zM270 715q0 -268 140 -430q136 -158 356 -158q232 0 367 149q141 155 141 437q0 287 -136 444q-131 150 -360 150 q-225 0 -366.5 -164t-141.5 -428zM639 1567l223 327h166l-262 -327h-127z" />
<glyph unicode="&#xd4;" horiz-adv-x="1544" d="M94 700q0 338 179 543q187 215 518 215q296 0 477.5 -200t181.5 -523q0 -352 -188 -558q-185 -202 -496 -202q-308 0 -493 206q-179 200 -179 519zM270 715q0 -268 140 -430q136 -158 356 -158q232 0 367 149q141 155 141 437q0 287 -136 444q-131 150 -360 150 q-225 0 -366.5 -164t-141.5 -428zM499 1567l215 331h133l215 -331h-120l-164 229l-166 -229h-113z" />
<glyph unicode="&#xd5;" horiz-adv-x="1544" d="M94 700q0 338 179 543q187 215 518 215q296 0 477.5 -200t181.5 -523q0 -352 -188 -558q-185 -202 -496 -202q-308 0 -493 206q-179 200 -179 519zM270 715q0 -268 140 -430q136 -158 356 -158q232 0 367 149q141 155 141 437q0 287 -136 444q-131 150 -360 150 q-225 0 -366.5 -164t-141.5 -428zM462 1546q0 103 44 167q49 69 138 69q66 0 150 -52q74 -45 127 -45q84 0 84 117h98q0 -99 -43 -165q-49 -72 -135 -72q-71 0 -162 51q-77 43 -119 43q-88 0 -88 -113h-94z" />
<glyph unicode="&#xd6;" horiz-adv-x="1544" d="M94 700q0 338 179 543q187 215 518 215q296 0 477.5 -200t181.5 -523q0 -352 -188 -558q-185 -202 -496 -202q-308 0 -493 206q-179 200 -179 519zM270 715q0 -268 140 -430q136 -158 356 -158q232 0 367 149q141 155 141 437q0 287 -136 444q-131 150 -360 150 q-225 0 -366.5 -164t-141.5 -428zM483 1662q0 42 29 70t69 28q42 0 71.5 -28.5t29.5 -69.5t-28.5 -69.5t-70.5 -28.5q-40 0 -70 28t-30 70zM870 1662q0 42 28 70t68 28q42 0 71.5 -28.5t29.5 -69.5t-28.5 -69.5t-70.5 -28.5q-40 0 -69 28t-29 70z" />
<glyph unicode="&#xd7;" horiz-adv-x="1401" d="M268 258l340 338l-340 340l94 94l338 -340l340 340l95 -94l-340 -340l340 -338l-95 -94l-340 340l-338 -340z" />
<glyph unicode="&#xd8;" horiz-adv-x="1544" d="M94 14l158 191q-158 195 -158 495q0 336 177 541q188 217 520 217q233 0 401 -129l135 162l78 -64l-139 -165q184 -201 184 -527q0 -352 -188 -558q-185 -202 -496 -202q-266 0 -442 156l-152 -182zM270 715q0 -223 99 -373l721 862q-126 103 -312 103 q-227 0 -367.5 -164.5t-140.5 -427.5zM432 264q131 -137 334 -137q234 0 369 150q139 156 139 436q0 259 -117 417z" />
<glyph unicode="&#xd9;" horiz-adv-x="1407" d="M170 557v877h168v-867q0 -440 373 -440q358 0 358 426v881h168v-854q0 -605 -545 -605q-522 0 -522 582zM441 1894h168l221 -327h-127z" />
<glyph unicode="&#xda;" horiz-adv-x="1407" d="M170 557v877h168v-867q0 -440 373 -440q358 0 358 426v881h168v-854q0 -605 -545 -605q-522 0 -522 582zM571 1566l223 327h166l-262 -327h-127z" />
<glyph unicode="&#xdb;" horiz-adv-x="1407" d="M170 557v877h168v-867q0 -440 373 -440q358 0 358 426v881h168v-854q0 -605 -545 -605q-522 0 -522 582zM423 1568l215 331h133l215 -331h-120l-164 229l-166 -229h-113z" />
<glyph unicode="&#xdc;" horiz-adv-x="1407" d="M170 557v877h168v-867q0 -440 373 -440q358 0 358 426v881h168v-854q0 -605 -545 -605q-522 0 -522 582zM410 1666q0 42 29 70t69 28q42 0 71.5 -28.5t29.5 -69.5t-28.5 -69.5t-70.5 -28.5q-40 0 -70 28t-30 70zM797 1666q0 42 28 70t68 28q42 0 71.5 -28.5t29.5 -69.5 t-28.5 -69.5t-70.5 -28.5q-40 0 -69 28t-29 70z" />
<glyph unicode="&#xdd;" horiz-adv-x="1133" d="M18 1434h191l321 -648q14 -33 35 -88h2q11 34 39 88l336 648h178l-473 -904v-530h-168v526zM442 1567l223 327h166l-262 -327h-127z" />
<glyph unicode="&#xde;" horiz-adv-x="1147" d="M188 0v1434h168v-226h226q238 0 363 -117q120 -112 120 -311q0 -197 -132 -325q-143 -138 -390 -138h-187v-317h-168zM356 469h176q174 0 265.5 79t91.5 222q0 287 -336 287h-197v-588z" />
<glyph unicode="&#xdf;" horiz-adv-x="1114" d="M166 0v1114q0 191 109 307.5t296 116.5q167 0 266 -95t99 -251q0 -128 -75.5 -229t-194.5 -140v-4q378 -75 378 -426q0 -167 -100 -285q-113 -133 -305 -133q-100 0 -178 27v160q74 -47 170 -47q108 0 175 70q71 74 71 200q0 150 -100.5 244t-278.5 112v131 q117 20 193.5 103.5t76.5 195.5q0 105 -53.5 166.5t-153.5 61.5q-231 0 -231 -309v-1090h-164z" />
<glyph unicode="&#xe0;" horiz-adv-x="1034" d="M82 272q0 287 338 334l307 43q0 260 -211 260q-185 0 -334 -125v168q47 34 145 64q109 33 203 33q361 0 361 -383v-666h-164v160h-4q-107 -185 -315 -185q-156 0 -243 86q-83 81 -83 211zM250 285q0 -74 52.5 -122t143.5 -48q124 0 202.5 86t78.5 215v102l-248 -35 q-135 -19 -185 -67q-44 -42 -44 -131zM277 1546h168l221 -327h-127z" />
<glyph unicode="&#xe1;" horiz-adv-x="1034" d="M82 272q0 287 338 334l307 43q0 260 -211 260q-185 0 -334 -125v168q47 34 145 64q109 33 203 33q361 0 361 -383v-666h-164v160h-4q-107 -185 -315 -185q-156 0 -243 86q-83 81 -83 211zM250 285q0 -74 52.5 -122t143.5 -48q124 0 202.5 86t78.5 215v102l-248 -35 q-135 -19 -185 -67q-44 -42 -44 -131zM360 1219l223 327h166l-262 -327h-127z" />
<glyph unicode="&#xe2;" horiz-adv-x="1034" d="M82 272q0 287 338 334l307 43q0 260 -211 260q-185 0 -334 -125v168q47 34 145 64q109 33 203 33q361 0 361 -383v-666h-164v160h-4q-107 -185 -315 -185q-156 0 -243 86q-83 81 -83 211zM250 285q0 -74 52.5 -122t143.5 -48q124 0 202.5 86t78.5 215v102l-248 -35 q-135 -19 -185 -67q-44 -42 -44 -131zM234 1219l215 331h133l215 -331h-120l-164 229l-166 -229h-113z" />
<glyph unicode="&#xe3;" horiz-adv-x="1034" d="M82 272q0 287 338 334l307 43q0 260 -211 260q-185 0 -334 -125v168q47 34 145 64q109 33 203 33q361 0 361 -383v-666h-164v160h-4q-107 -185 -315 -185q-156 0 -243 86q-83 81 -83 211zM250 285q0 -74 52.5 -122t143.5 -48q124 0 202.5 86t78.5 215v102l-248 -35 q-135 -19 -185 -67q-44 -42 -44 -131zM195 1202q0 103 44 167q49 69 138 69q66 0 150 -52q74 -45 127 -45q84 0 84 117h98q0 -99 -43 -165q-49 -72 -135 -72q-71 0 -162 51q-77 43 -119 43q-88 0 -88 -113h-94z" />
<glyph unicode="&#xe4;" horiz-adv-x="1034" d="M82 272q0 287 338 334l307 43q0 260 -211 260q-185 0 -334 -125v168q47 34 145 64q109 33 203 33q361 0 361 -383v-666h-164v160h-4q-107 -185 -315 -185q-156 0 -243 86q-83 81 -83 211zM250 285q0 -74 52.5 -122t143.5 -48q124 0 202.5 86t78.5 215v102l-248 -35 q-135 -19 -185 -67q-44 -42 -44 -131zM215 1317q0 42 29 70t69 28q42 0 71.5 -28.5t29.5 -69.5t-28.5 -69.5t-70.5 -28.5q-40 0 -70 28t-30 70zM602 1317q0 42 28 70t68 28q42 0 71.5 -28.5t29.5 -69.5t-28.5 -69.5t-70.5 -28.5q-40 0 -69 28t-29 70z" />
<glyph unicode="&#xe5;" horiz-adv-x="1034" d="M82 272q0 287 338 334l307 43q0 260 -211 260q-185 0 -334 -125v168q47 34 145 64q109 33 203 33q361 0 361 -383v-666h-164v160h-4q-107 -185 -315 -185q-156 0 -243 86q-83 81 -83 211zM250 285q0 -74 52.5 -122t143.5 -48q124 0 202.5 86t78.5 215v102l-248 -35 q-135 -19 -185 -67q-44 -42 -44 -131zM306 1366q0 90 61 145q58 54 148 54q89 0 146 -54.5t57 -138.5q0 -83 -61.5 -139.5t-147.5 -56.5q-88 0 -145.5 52.5t-57.5 137.5zM396 1370q0 -113 113 -113q49 0 81.5 32.5t32.5 80.5q0 49 -32.5 81t-81.5 32t-81 -32.5t-32 -80.5z " />
<glyph unicode="&#xe6;" horiz-adv-x="1688" d="M82 272q0 300 383 324l262 16q0 297 -215 297q-175 0 -330 -121v164q148 97 348 97q231 0 299 -201h5q116 201 356 201q206 0 318 -138q106 -130 106 -356v-84h-725q3 -173 92 -264.5t240 -91.5q177 0 321 112v-153q-133 -99 -358 -99q-270 0 -383 230h-4 q-145 -230 -387 -230q-156 0 -244 85q-84 80 -84 212zM248 276q0 -73 53 -117t143 -44q117 0 198 80q85 84 85 215v63l-203 -12q-157 -10 -222 -59q-54 -42 -54 -126zM891 610h555q-2 141 -67.5 220t-186.5 79q-116 0 -199 -81.5t-102 -217.5z" />
<glyph unicode="&#xe7;" horiz-adv-x="938" d="M88 487q0 252 144.5 407t388.5 155q134 0 237 -52v-168q-114 80 -244 80q-156 0 -255 -109q-103 -112 -103 -298q0 -179 94.5 -283t253.5 -104q134 0 252 88v-156q-117 -72 -274 -72v-79q86 0 137 -40t51 -112q0 -176 -274 -176q-39 0 -66 2v90q42 -6 70 -6q141 0 141 90 q0 78 -129 78q-1 0 -41 -4v168q-176 33 -279.5 170t-103.5 331z" />
<glyph unicode="&#xe8;" horiz-adv-x="1055" d="M88 508q0 247 143 399q134 142 328 142q208 0 318 -139q104 -130 104 -353v-86h-723q4 -172 92 -264t242 -92q173 0 317 112v-153q-134 -99 -356 -99q-210 0 -333 132q-132 140 -132 401zM260 610h553q-2 140 -66 218q-67 81 -190 81q-116 0 -197 -82.5t-100 -216.5z M327 1546h168l221 -327h-127z" />
<glyph unicode="&#xe9;" horiz-adv-x="1055" d="M88 508q0 247 143 399q134 142 328 142q208 0 318 -139q104 -130 104 -353v-86h-723q4 -172 92 -264t242 -92q173 0 317 112v-153q-134 -99 -356 -99q-210 0 -333 132q-132 140 -132 401zM260 610h553q-2 140 -66 218q-67 81 -190 81q-116 0 -197 -82.5t-100 -216.5z M397 1219l223 327h166l-262 -327h-127z" />
<glyph unicode="&#xea;" horiz-adv-x="1055" d="M88 508q0 247 143 399q134 142 328 142q208 0 318 -139q104 -130 104 -353v-86h-723q4 -172 92 -264t242 -92q173 0 317 112v-153q-134 -99 -356 -99q-210 0 -333 132q-132 140 -132 401zM260 610h553q-2 140 -66 218q-67 81 -190 81q-116 0 -197 -82.5t-100 -216.5z M268 1219l215 331h133l215 -331h-120l-164 229l-166 -229h-113z" />
<glyph unicode="&#xeb;" horiz-adv-x="1055" d="M88 508q0 247 143 399q134 142 328 142q208 0 318 -139q104 -130 104 -353v-86h-723q4 -172 92 -264t242 -92q173 0 317 112v-153q-134 -99 -356 -99q-210 0 -333 132q-132 140 -132 401zM260 610h553q-2 140 -66 218q-67 81 -190 81q-116 0 -197 -82.5t-100 -216.5z M252 1317q0 42 29 70t69 28q42 0 71.5 -28.5t29.5 -69.5t-28.5 -69.5t-70.5 -28.5q-40 0 -70 28t-30 70zM639 1317q0 42 28 70t68 28q42 0 71.5 -28.5t29.5 -69.5t-28.5 -69.5t-70.5 -28.5q-40 0 -69 28t-29 70z" />
<glyph unicode="&#xec;" horiz-adv-x="496" d="M166 0v1024h164v-1024h-164zM-8 1546h168l221 -327h-127z" />
<glyph unicode="&#xed;" horiz-adv-x="496" d="M166 0v1024h164v-1024h-164zM100 1219l223 327h166l-262 -327h-127z" />
<glyph unicode="&#xee;" horiz-adv-x="496" d="M166 0v1024h164v-1024h-164zM-33 1219l215 331h133l215 -331h-120l-164 229l-166 -229h-113z" />
<glyph unicode="&#xef;" horiz-adv-x="496" d="M166 0v1024h164v-1024h-164zM-44 1317q0 42 29 70t69 28q42 0 71.5 -28.5t29.5 -69.5t-28.5 -69.5t-70.5 -28.5q-40 0 -70 28t-30 70zM343 1317q0 42 28 70t68 28q42 0 71.5 -28.5t29.5 -69.5t-28.5 -69.5t-70.5 -28.5q-40 0 -69 28t-29 70z" />
<glyph unicode="&#xf0;" horiz-adv-x="1128" d="M88 500q0 237 124 387q132 160 355 160q124 0 211 -78l4 2q-90 162 -198 266l-299 -152l-52 99l271 131q-119 105 -264 201h221q75 -51 172 -136l289 144l55 -94l-264 -130q327 -307 327 -774q0 -232 -120 -383q-131 -166 -361 -166q-229 0 -355 151q-116 139 -116 372z M256 506q0 -179 81 -283q83 -108 232 -108q140 0 221.5 108t81.5 287q0 399 -299 399q-147 0 -232 -108t-85 -295z" />
<glyph unicode="&#xf1;" horiz-adv-x="1159" d="M166 0v1024h164v-170h4q115 195 336 195q169 0 257.5 -110t88.5 -312v-627h-164v584q0 325 -238 325q-123 0 -203.5 -92t-80.5 -233v-584h-164zM267 1202q0 103 44 167q49 69 138 69q66 0 150 -52q74 -45 127 -45q84 0 84 117h98q0 -99 -43 -165q-49 -72 -135 -72 q-71 0 -162 51q-77 43 -119 43q-88 0 -88 -113h-94z" />
<glyph unicode="&#xf2;" horiz-adv-x="1184" d="M88 500q0 267 150 413q139 136 372 136q229 0 357.5 -142t128.5 -391q0 -245 -138 -393t-372 -148q-231 0 -366 148q-132 143 -132 377zM256 506q0 -184 93 -287.5t249 -103.5q162 0 247 105q83 102 83 290q0 197 -89 300q-86 99 -241 99q-153 0 -245 -100 q-97 -107 -97 -303zM350 1546h168l221 -327h-127z" />
<glyph unicode="&#xf3;" horiz-adv-x="1184" d="M88 500q0 267 150 413q139 136 372 136q229 0 357.5 -142t128.5 -391q0 -245 -138 -393t-372 -148q-231 0 -366 148q-132 143 -132 377zM256 506q0 -184 93 -287.5t249 -103.5q162 0 247 105q83 102 83 290q0 197 -89 300q-86 99 -241 99q-153 0 -245 -100 q-97 -107 -97 -303zM449 1219l223 327h166l-262 -327h-127z" />
<glyph unicode="&#xf4;" horiz-adv-x="1184" d="M88 500q0 267 150 413q139 136 372 136q229 0 357.5 -142t128.5 -391q0 -245 -138 -393t-372 -148q-231 0 -366 148q-132 143 -132 377zM256 506q0 -184 93 -287.5t249 -103.5q162 0 247 105q83 102 83 290q0 197 -89 300q-86 99 -241 99q-153 0 -245 -100 q-97 -107 -97 -303zM312 1219l215 331h133l215 -331h-120l-164 229l-166 -229h-113z" />
<glyph unicode="&#xf5;" horiz-adv-x="1184" d="M88 500q0 267 150 413q139 136 372 136q229 0 357.5 -142t128.5 -391q0 -245 -138 -393t-372 -148q-231 0 -366 148q-132 143 -132 377zM256 506q0 -184 93 -287.5t249 -103.5q162 0 247 105q83 102 83 290q0 197 -89 300q-86 99 -241 99q-153 0 -245 -100 q-97 -107 -97 -303zM282 1202q0 103 44 167q49 69 138 69q66 0 150 -52q74 -45 127 -45q84 0 84 117h98q0 -99 -43 -165q-49 -72 -135 -72q-71 0 -162 51q-77 43 -119 43q-88 0 -88 -113h-94z" />
<glyph unicode="&#xf6;" horiz-adv-x="1184" d="M88 500q0 267 150 413q139 136 372 136q229 0 357.5 -142t128.5 -391q0 -245 -138 -393t-372 -148q-231 0 -366 148q-132 143 -132 377zM256 506q0 -184 93 -287.5t249 -103.5q162 0 247 105q83 102 83 290q0 197 -89 300q-86 99 -241 99q-153 0 -245 -100 q-97 -107 -97 -303zM299 1317q0 42 29 70t69 28q42 0 71.5 -28.5t29.5 -69.5t-28.5 -69.5t-70.5 -28.5q-40 0 -70 28t-30 70zM686 1317q0 42 28 70t68 28q42 0 71.5 -28.5t29.5 -69.5t-28.5 -69.5t-70.5 -28.5q-40 0 -69 28t-29 70z" />
<glyph unicode="&#xf7;" horiz-adv-x="1401" d="M231 530v134h940v-134h-940zM598 215q0 46 30 78.5t77 32.5q100 0 100 -109q0 -47 -29.5 -75.5t-70.5 -28.5q-45 0 -76 29.5t-31 72.5zM604 973q0 45 29 76.5t76 31.5q102 0 102 -106q0 -47 -30.5 -77t-71.5 -30q-45 0 -75 30.5t-30 74.5z" />
<glyph unicode="&#xf8;" horiz-adv-x="1184" d="M41 -4l149 164q-102 137 -102 340q0 266 151 413q140 136 373 136q185 0 308 -99l161 176l84 -77l-168 -181q99 -138 99 -346q0 -255 -142 -403q-138 -144 -368 -144q-193 0 -318 103l-145 -160zM256 506q0 -132 49 -223l508 553q-80 73 -215 73q-154 0 -245 -100 q-97 -107 -97 -303zM375 190q86 -75 221 -75q164 0 250 106q84 103 84 291q0 134 -47 229z" />
<glyph unicode="&#xf9;" horiz-adv-x="1159" d="M143 412v612h164v-586q0 -323 248 -323q119 0 196.5 86.5t77.5 232.5v590h164v-1024h-164v162h-4q-102 -187 -315 -187q-367 0 -367 437zM316 1546h168l221 -327h-127z" />
<glyph unicode="&#xfa;" horiz-adv-x="1159" d="M143 412v612h164v-586q0 -323 248 -323q119 0 196.5 86.5t77.5 232.5v590h164v-1024h-164v162h-4q-102 -187 -315 -187q-367 0 -367 437zM451 1219l223 327h166l-262 -327h-127z" />
<glyph unicode="&#xfb;" horiz-adv-x="1159" d="M143 412v612h164v-586q0 -323 248 -323q119 0 196.5 86.5t77.5 232.5v590h164v-1024h-164v162h-4q-102 -187 -315 -187q-367 0 -367 437zM290 1219l215 331h133l215 -331h-120l-164 229l-166 -229h-113z" />
<glyph unicode="&#xfc;" horiz-adv-x="1159" d="M143 412v612h164v-586q0 -323 248 -323q119 0 196.5 86.5t77.5 232.5v590h164v-1024h-164v162h-4q-102 -187 -315 -187q-367 0 -367 437zM285 1317q0 42 29 70t69 28q42 0 71.5 -28.5t29.5 -69.5t-28.5 -69.5t-70.5 -28.5q-40 0 -70 28t-30 70zM672 1317q0 42 28 70 t68 28q42 0 71.5 -28.5t29.5 -69.5t-28.5 -69.5t-70.5 -28.5q-40 0 -69 28t-29 70z" />
<glyph unicode="&#xfd;" horiz-adv-x="991" d="M14 1024h183l276 -788q8 -22 21 -78h6q5 24 20 75l291 791h170l-471 -1188q-126 -317 -354 -317q-64 0 -107 12v147q53 -18 96 -18q125 0 187 147l82 195zM373 1219l223 327h166l-262 -327h-127z" />
<glyph unicode="&#xfe;" horiz-adv-x="1196" d="M166 -471v1987h164v-672h4q121 205 354 205q204 0 316 -148q104 -136 104 -358q0 -251 -119 -405q-126 -163 -348 -163q-202 0 -307 172h-4v-618h-164zM330 418q0 -124 79 -211q84 -92 214 -92q146 0 230 110q87 114 87 320q0 170 -79 267t-214 97q-148 0 -237 -106 q-80 -98 -80 -242v-143z" />
<glyph unicode="&#xff;" horiz-adv-x="991" d="M14 1024h183l276 -788q8 -22 21 -78h6q5 24 20 75l291 791h170l-471 -1188q-126 -317 -354 -317q-64 0 -107 12v147q53 -18 96 -18q125 0 187 147l82 195zM204 1317q0 42 29 70t69 28q42 0 71.5 -28.5t29.5 -69.5t-28.5 -69.5t-70.5 -28.5q-40 0 -70 28t-30 70zM591 1317 q0 42 28 70t68 28q42 0 71.5 -28.5t29.5 -69.5t-28.5 -69.5t-70.5 -28.5q-40 0 -69 28t-29 70z" />
<glyph unicode="&#x131;" horiz-adv-x="496" d="M166 0v1024h164v-1024h-164z" />
<glyph unicode="&#x152;" horiz-adv-x="1907" d="M94 700q0 341 184 546q191 212 521 212q88 0 178 -11q111 -13 113 -13h688v-152h-559v-477h518v-152h-518v-501h591v-152h-720q-25 -1 -138 -14q-98 -11 -182 -11q-318 0 -502 211q-174 199 -174 514zM270 715q0 -255 136 -419q141 -169 370 -169q116 0 275 33v1118 q-161 29 -269 29q-231 0 -374 -172q-138 -165 -138 -420z" />
<glyph unicode="&#x153;" horiz-adv-x="1884" d="M88 498q0 265 149 412q141 139 375 139q293 0 402 -236h4q119 236 385 236q196 0 307 -135q107 -131 107 -355v-88h-725q3 -171 91 -263.5t242 -92.5q176 0 320 112v-153q-136 -99 -356 -99q-271 0 -383 238h-5q-130 -238 -415 -238q-232 0 -367 148q-131 142 -131 375z M256 502q0 -183 94 -287q91 -100 246 -100q160 0 246 103t86 290q0 197 -89 301q-86 100 -241 100q-153 0 -245 -102q-97 -108 -97 -305zM1094 610h555q-2 142 -69.5 220.5t-182.5 78.5q-124 0 -208 -89q-79 -82 -95 -210z" />
<glyph unicode="&#x178;" horiz-adv-x="1133" d="M18 1434h191l321 -648q14 -33 35 -88h2q11 34 39 88l336 648h178l-473 -904v-530h-168v526zM274 1664q0 42 29 70t69 28q42 0 71.5 -28.5t29.5 -69.5t-28.5 -69.5t-70.5 -28.5q-40 0 -70 28t-30 70zM661 1664q0 42 28 70t68 28q42 0 71.5 -28.5t29.5 -69.5t-28.5 -69.5 t-70.5 -28.5q-40 0 -69 28t-29 70z" />
<glyph unicode="&#x2c6;" horiz-adv-x="760" d="M92 1219l215 331h133l215 -331h-120l-164 229l-166 -229h-113z" />
<glyph unicode="&#x2da;" horiz-adv-x="573" d="M82 1366q0 90 61 145q58 54 148 54q89 0 146 -54.5t57 -138.5q0 -83 -61.5 -139.5t-147.5 -56.5q-88 0 -145.5 52.5t-57.5 137.5zM172 1370q0 -113 113 -113q49 0 81.5 32.5t32.5 80.5q0 49 -32.5 81t-81.5 32t-81 -32.5t-32 -80.5z" />
<glyph unicode="&#x2dc;" horiz-adv-x="690" d="M35 1202q0 103 44 167q49 69 138 69q66 0 150 -52q74 -45 127 -45q84 0 84 117h98q0 -99 -43 -165q-49 -72 -135 -72q-71 0 -162 51q-77 43 -119 43q-88 0 -88 -113h-94z" />
<glyph unicode="&#x2000;" horiz-adv-x="949" />
<glyph unicode="&#x2001;" horiz-adv-x="1899" />
<glyph unicode="&#x2002;" horiz-adv-x="949" />
<glyph unicode="&#x2003;" horiz-adv-x="1899" />
<glyph unicode="&#x2004;" horiz-adv-x="633" />
<glyph unicode="&#x2005;" horiz-adv-x="474" />
<glyph unicode="&#x2006;" horiz-adv-x="316" />
<glyph unicode="&#x2007;" horiz-adv-x="316" />
<glyph unicode="&#x2008;" horiz-adv-x="237" />
<glyph unicode="&#x2009;" horiz-adv-x="379" />
<glyph unicode="&#x200a;" horiz-adv-x="105" />
<glyph unicode="&#x2010;" horiz-adv-x="819" d="M143 506v129h547v-129h-547z" />
<glyph unicode="&#x2011;" horiz-adv-x="819" d="M143 506v129h547v-129h-547z" />
<glyph unicode="&#x2012;" horiz-adv-x="819" d="M143 506v129h547v-129h-547z" />
<glyph unicode="&#x2013;" horiz-adv-x="1024" d="M0 506v129h1024v-129h-1024z" />
<glyph unicode="&#x2014;" horiz-adv-x="2048" d="M0 506v129h2048v-129h-2048z" />
<glyph unicode="&#x2018;" horiz-adv-x="469" d="M106 1012l140 446h119l-109 -446h-150z" />
<glyph unicode="&#x2019;" horiz-adv-x="469" d="M111 1012l110 446h148l-142 -446h-116z" />
<glyph unicode="&#x201a;" horiz-adv-x="469" d="M88 -227l111 444h147l-141 -444h-117z" />
<glyph unicode="&#x201c;" horiz-adv-x="772" d="M106 1012l140 446h119l-109 -446h-150zM410 1012l141 446h117l-111 -446h-147z" />
<glyph unicode="&#x201d;" horiz-adv-x="772" d="M111 1012l110 446h148l-142 -446h-116zM414 1012l108 446h150l-140 -446h-118z" />
<glyph unicode="&#x201e;" horiz-adv-x="772" d="M88 -227l111 444h147l-141 -444h-117zM391 -227l109 444h149l-139 -444h-119z" />
<glyph unicode="&#x2022;" horiz-adv-x="831" d="M164 657q0 104 75 179t179 75q103 0 176.5 -74.5t73.5 -179.5q0 -103 -73 -176t-177 -73q-105 0 -179.5 73t-74.5 176z" />
<glyph unicode="&#x2026;" horiz-adv-x="1501" d="M139 92q0 46 32 79.5t77 33.5t77.5 -33.5t32.5 -79.5q0 -45 -32.5 -77.5t-77.5 -32.5q-46 0 -77.5 32t-31.5 78zM639 92q0 46 32.5 79.5t78.5 33.5q45 0 77.5 -33.5t32.5 -79.5q0 -45 -32.5 -77.5t-77.5 -32.5q-46 0 -78.5 32.5t-32.5 77.5zM1143 92q0 46 31.5 79.5 t76.5 33.5q46 0 78.5 -33.5t32.5 -79.5q0 -45 -32.5 -77.5t-78.5 -32.5q-45 0 -76.5 32t-31.5 78z" />
<glyph unicode="&#x202f;" horiz-adv-x="379" />
<glyph unicode="&#x2039;" horiz-adv-x="647" d="M92 537l299 344h168l-305 -344l303 -336h-166z" />
<glyph unicode="&#x203a;" horiz-adv-x="647" d="M92 201l303 338l-303 342h166l301 -342l-301 -338h-166z" />
<glyph unicode="&#x205f;" horiz-adv-x="474" />
<glyph unicode="&#x20ac;" d="M102 483v140h107q-2 14 -2 35v40q0 51 4 109h-109v139h131q57 248 198.5 380t338.5 132q141 0 244 -55v-164q-121 80 -256 80q-124 0 -221.5 -101t-137.5 -272h496v-139h-518q-4 -46 -4 -107v-40q0 -19 2 -37h520v-140h-504q73 -368 350 -368q133 0 273 88v-152 q-137 -76 -281 -76q-425 0 -510 508h-121z" />
<glyph unicode="&#x2122;" horiz-adv-x="1583" d="M76 1335v99h526v-99h-209v-563h-110v563h-207zM686 772v662h127l225 -496h4l228 496h127v-662h-109v477h-4l-219 -477h-59l-213 477h-5v-477h-102z" />
<glyph unicode="&#xe000;" horiz-adv-x="1025" d="M0 1025h1025v-1025h-1025v1025z" />
<glyph unicode="&#xfb01;" horiz-adv-x="1137" d="M53 885v139h174v166q0 169 105 265q90 83 221 83q76 0 119 -18v-148q-48 27 -109 27q-172 0 -172 -217v-158h240v-139h-240v-885h-164v885h-174zM786 1391q0 45 31.5 75.5t75.5 30.5q45 0 76.5 -30.5t31.5 -75.5t-31.5 -76t-76.5 -31q-44 0 -75.5 30t-31.5 77zM809 0 v1024h164v-1024h-164z" />
<glyph unicode="&#xfb02;" horiz-adv-x="1137" d="M53 885v139h174v166q0 169 105 265q90 83 221 83q76 0 119 -18v-148q-48 27 -109 27q-172 0 -172 -217v-158h240v-139h-240v-885h-164v885h-174zM813 0v1516h162v-1516h-162z" />
<glyph unicode="&#xfb04;" horiz-adv-x="1778" d="M1448 0v1516h164v-1516h-164zM694 885v139h174v166q0 169 105 265q90 83 221 83q76 0 119 -18v-148q-48 27 -109 27q-172 0 -172 -217v-158h240v-139h-240v-885h-164v885h-174zM53 885v139h174v166q0 169 105 265q90 83 221 83q76 0 119 -18v-148q-48 27 -109 27 q-172 0 -172 -217v-158h240v-139h-240v-885h-164v885h-174z" />
</font>
</defs>
</svg>
