<?xml version="1.0" standalone="no"?>
<!DOCTYPE svg PUBLIC "-//W3C//DTD SVG 1.1//EN" "http://www.w3.org/Graphics/SVG/1.1/DTD/svg11.dtd" >
<svg xmlns="http://www.w3.org/2000/svg">
<metadata>
This is a custom SVG webfont generated by Font Squirrel.
Copyright   :  2010 Microsoft Corporation All Rights Reserved
Foundry     : Microsoft Corporation
Foundry URL : httpwwwmicrosoftcomtypographyfonts
</metadata>
<defs>
<font id="SegoeBold" horiz-adv-x="1178" >
<font-face units-per-em="2048" ascent="1638" descent="-410" />
<missing-glyph horiz-adv-x="565" />
<glyph unicode=" " horiz-adv-x="565" d="M0 0z" />
<glyph unicode="!" horiz-adv-x="670" d="M152 143q0 72 52.5 118t131.5 46q80 0 131 -46.5t51 -117.5q0 -70 -50 -118t-132 -48q-81 0 -132.5 49t-51.5 117zM168 1434h332l-39 -988h-256z" />
<glyph unicode="&#x22;" horiz-adv-x="1010" d="M176 1452h262l-30 -442h-203zM571 1452h263l-31 -444h-201z" />
<glyph unicode="#" horiz-adv-x="1212" d="M37 461l37 180h188l53 248h-202l34 180h205l74 356h205l-74 -356h229l76 356h203l-74 -356h185l-39 -180h-185l-55 -248h207l-45 -180h-199l-78 -346h-200l73 346h-229l-74 -346h-200l71 346h-186zM463 641h231l56 248h-232z" />
<glyph unicode="$" d="M123 1038q0 154 107 263q112 114 298 133v186h146v-182q212 -11 315 -68v-270q-141 85 -315 104v-379q202 -73 297 -163q112 -106 112 -263q0 -165 -105 -266.5t-304 -124.5v-217h-146v211q-204 1 -378 92v277q59 -48 176 -88q113 -39 202 -45v364q-197 74 -285 153 q-120 109 -120 283zM389 1055q0 -104 139 -172v317q-139 -26 -139 -145zM674 242q143 22 143 143q0 97 -143 160v-303z" />
<glyph unicode="%" horiz-adv-x="1776" d="M90 1065q0 181 100 285t265 104q157 0 247.5 -94t90.5 -268q0 -179 -102 -284q-98 -101 -261 -101q-151 0 -244 95q-96 97 -96 263zM299 0l932 1434h246l-934 -1434h-244zM303 1075q0 -192 139 -192q142 0 142 200q0 195 -135 195q-146 0 -146 -203zM983 338 q0 181 100 285t265 104q157 0 246 -91q92 -95 92 -269q0 -180 -100.5 -283.5t-262.5 -103.5q-151 0 -244 95q-96 97 -96 263zM1194 348q0 -192 141 -192q142 0 142 200q0 99 -43 151q-37 44 -95 44q-145 0 -145 -203z" />
<glyph unicode="&#x26;" horiz-adv-x="1485" d="M84 371q0 239 328 411q-146 174 -146 326q0 153 116.5 251.5t303.5 98.5t294 -96q97 -88 97 -219q0 -125 -69 -211.5t-230 -165.5q110 -121 271 -293q75 123 75 297h256q0 -283 -176 -475l279 -297h-361l-108 121q-75 -62 -193 -102q-124 -42 -248 -42q-236 0 -367 115 q-122 106 -122 281zM381 399q0 -100 73 -157q63 -49 150 -49q156 0 262 88q-94 101 -323 354q-162 -88 -162 -236zM530 1114q0 -75 121 -209q168 93 168 217q0 58 -43 98q-39 37 -90 37q-66 0 -108 -35q-48 -39 -48 -108z" />
<glyph unicode="'" horiz-adv-x="600" d="M170 1452h260l-31 -442h-200z" />
<glyph unicode="(" horiz-adv-x="756" d="M158 549q0 500 323 885h256q-303 -403 -303 -885t305 -875h-258q-323 357 -323 875z" />
<glyph unicode=")" horiz-adv-x="756" d="M18 -326q306 389 306 875q0 481 -306 885h258q324 -385 324 -885q0 -516 -326 -875h-256z" />
<glyph unicode="*" horiz-adv-x="932" d="M70 1053l71 202l252 -108l-43 287h234l-43 -287l250 108l73 -202l-274 -37l196 -211l-182 -125l-137 254l-137 -254l-183 125l197 211z" />
<glyph unicode="+" horiz-adv-x="1448" d="M238 485v203h387v387h202v-387h385v-203h-385v-385h-202v385h-387z" />
<glyph unicode="," horiz-adv-x="555" d="M39 -254l102 506h291l-147 -506h-246z" />
<glyph unicode="-" horiz-adv-x="827" d="M143 436v221h547v-221h-547z" />
<glyph unicode="." horiz-adv-x="555" d="M92 141q0 73 53.5 118.5t133.5 45.5t132 -46.5t52 -117.5q0 -73 -52.5 -119.5t-136.5 -46.5q-79 0 -131 50q-51 47 -51 116z" />
<glyph unicode="/" horiz-adv-x="907" d="M-49 -238l696 1672h285l-699 -1672h-282z" />
<glyph unicode="0" d="M70 694q0 381 144 576q138 188 396 188q500 0 500 -731q0 -368 -140 -563q-137 -189 -388 -189q-512 0 -512 719zM391 702q0 -485 201 -485q196 0 196 500t-192 500q-205 0 -205 -515z" />
<glyph unicode="1" d="M162 1077v256l620 125v-1208h295v-250h-907v250h297v893z" />
<glyph unicode="2" d="M109 0v246l411 393q129 123 178 205q47 78 47 164q0 198 -213 198q-185 0 -354 -147v278q186 121 422 121q228 0 353 -119q114 -110 114 -290q0 -251 -301 -519l-295 -262v-6h582v-262h-944z" />
<glyph unicode="3" d="M147 47v275q143 -105 336 -105q124 0 190 53t66 144q0 99 -88 151q-83 49 -225 49h-129v242h119q280 0 280 186q0 175 -215 175q-146 0 -280 -93v258q150 76 352 76q234 0 359 -113q106 -97 106 -243q0 -282 -285 -352v-5q155 -18 244 -114q84 -91 84 -221 q0 -198 -143 -314q-147 -121 -410 -121q-222 0 -361 72z" />
<glyph unicode="4" d="M39 305v201l602 928h311v-904h172v-225h-172v-305h-288v305h-625zM301 530h363v451q0 58 4 137h-6q-14 -36 -54 -112z" />
<glyph unicode="5" d="M164 37v270q146 -90 313 -90q129 0 200 63q66 59 66 158q0 213 -301 213q-95 0 -237 -18v801h794v-258h-524v-287q65 6 119 6q227 0 353 -123q118 -115 118 -305q0 -209 -138 -344q-150 -148 -415 -148q-209 0 -348 62z" />
<glyph unicode="6" d="M100 641q0 366 170 588q176 229 480 229q166 0 258 -39v-264q-108 62 -238 62q-160 0 -257 -121.5t-101 -325.5h6q102 152 301 152q182 0 288 -126q103 -121 103 -319q0 -215 -139.5 -358.5t-356.5 -143.5q-236 0 -372 168q-142 175 -142 498zM422 471q0 -99 47 -171 q53 -83 145 -83q87 0 138 69q49 66 49 171q0 231 -189 231q-89 0 -142 -65q-48 -60 -48 -152z" />
<glyph unicode="7" d="M96 1176v258h998v-146l-506 -1288h-334l510 1176h-668z" />
<glyph unicode="8" d="M82 367q0 258 289 378v5q-246 101 -246 327q0 166 132 273.5t341 107.5q220 0 348 -106q119 -100 119 -254q0 -236 -272 -346v-4q153 -46 235 -153q72 -95 72 -210q0 -185 -134 -294q-141 -116 -399 -116q-217 0 -351 106.5t-134 285.5zM381 383q0 -80 64 -131 q60 -49 147 -49q95 0 153 50t58 132q0 164 -221 240q-201 -80 -201 -242zM424 1069q0 -134 172 -203q172 72 172 205q0 74 -47.5 117t-122.5 43q-73 0 -122 -44q-52 -45 -52 -118z" />
<glyph unicode="9" d="M78 952q0 233 146 372q140 134 360 134q211 0 344 -146q159 -176 159 -526q0 -383 -165 -597t-459 -214q-177 0 -303 56v260q112 -74 272 -74q163 0 255 111t93 321l-6 2q-95 -141 -289 -141q-172 0 -287 118q-120 124 -120 324zM387 979q0 -111 53.5 -172.5t141.5 -61.5 q83 0 134.5 60t51.5 149q0 112 -53 187.5t-140 75.5q-80 0 -133 -64q-55 -67 -55 -174z" />
<glyph unicode=":" horiz-adv-x="555" d="M92 141q0 73 53.5 118.5t133.5 45.5t132 -46.5t52 -117.5q0 -73 -52.5 -119.5t-136.5 -46.5q-79 0 -131 50q-51 47 -51 116zM92 872q0 73 53.5 118.5t133.5 45.5t132 -46t52 -118t-52.5 -118.5t-136.5 -46.5q-79 0 -130.5 48t-51.5 117z" />
<glyph unicode=";" horiz-adv-x="555" d="M39 -254l102 506h291l-147 -506h-246zM98 872q0 73 52.5 118.5t132.5 45.5t132 -46t52 -118q0 -73 -51.5 -119t-134.5 -46q-80 0 -131.5 48t-51.5 117z" />
<glyph unicode="&#x3c;" horiz-adv-x="1448" d="M258 489v162l934 447v-238l-666 -285v-6l666 -268v-238z" />
<glyph unicode="=" horiz-adv-x="1448" d="M238 266v203h974v-203h-974zM238 700v205h974v-205h-974z" />
<glyph unicode="&#x3e;" horiz-adv-x="1448" d="M258 76v237l668 267v4l-668 286v238l934 -444v-162z" />
<glyph unicode="?" horiz-adv-x="897" d="M84 1065v301q153 92 346 92q226 0 344 -108q105 -96 105 -254q0 -208 -209 -379q-79 -65 -105 -101q-41 -56 -41 -133v-55h-260v84q0 183 144 303q87 73 119 119q36 53 36 119q0 61 -45.5 102t-120.5 41q-165 0 -313 -131zM215 143q0 72 53.5 118t132.5 46 q81 0 132 -46.5t51 -117.5q0 -70 -49 -117q-52 -49 -134 -49q-80 0 -133 49t-53 117z" />
<glyph unicode="@" horiz-adv-x="1954" d="M135 592q0 356 236 601q249 259 647 259q356 0 577 -188q228 -194 228 -512q0 -268 -146 -426q-134 -146 -327 -146q-101 0 -164 55q-58 52 -64 136h-6q-70 -191 -254 -191q-131 0 -214 91q-93 101 -93 286q0 238 127 384q114 132 272 132q148 0 187 -117h4l10 99h225 q-45 -427 -45 -557q0 -140 76 -140q77 0 129 101q55 107 55 282q0 215 -127 360q-152 173 -438 173q-289 0 -480 -204q-185 -198 -185 -482q0 -276 164 -435q168 -163 466 -163q224 0 412 86v-191q-173 -73 -440 -73q-358 0 -587 199q-245 214 -245 581zM786 559 q0 -100 43 -155q37 -48 95 -48q96 0 151 107q51 100 51 264q0 82 -39 129q-38 43 -98 43q-94 0 -152 -113q-51 -98 -51 -227z" />
<glyph unicode="A" horiz-adv-x="1440" d="M10 0l522 1434h383l510 -1434h-352l-102 319h-510l-101 -319h-350zM530 567h367l-154 482q-18 57 -24 129h-8q-6 -66 -25 -125z" />
<glyph unicode="B" horiz-adv-x="1313" d="M164 0v1434h522q247 0 376 -93q122 -88 122 -243q0 -125 -90 -216q-76 -77 -189 -108v-4q155 -19 247 -116q89 -93 89 -226q0 -196 -140.5 -312t-385.5 -116h-551zM487 238h175q112 0 177 53q62 53 62 141q0 86 -63 135t-174 49h-177v-378zM487 856h142q99 0 157 49 t58 133q0 158 -236 158h-121v-340z" />
<glyph unicode="C" horiz-adv-x="1278" d="M74 686q0 346 213 559t551 213q209 0 354 -53v-311q-145 86 -328 86q-195 0 -318 -119q-132 -128 -132 -352q0 -208 117 -331.5t315 -123.5q189 0 346 92v-295q-157 -76 -410 -76q-340 0 -530 206q-178 192 -178 505z" />
<glyph unicode="D" horiz-adv-x="1509" d="M164 0v1434h508q764 0 764 -699q0 -334 -208.5 -534.5t-555.5 -200.5h-508zM487 262h160q212 0 332 129q117 125 117 340q0 201 -114 318q-119 122 -337 122h-158v-909z" />
<glyph unicode="E" horiz-adv-x="1090" d="M164 0v1434h827v-263h-504v-319h469v-262h-469v-328h537v-262h-860z" />
<glyph unicode="F" horiz-adv-x="1065" d="M164 0v1434h829v-263h-506v-352h465v-262h-465v-557h-323z" />
<glyph unicode="G" horiz-adv-x="1456" d="M74 694q0 332 210 544q220 220 588 220q227 0 402 -63v-303q-167 96 -406 96q-196 0 -321 -124q-133 -132 -133 -355q0 -234 126 -356q112 -107 294 -107q116 0 184 33v280h-287v258h610v-721q-209 -121 -522 -121q-346 0 -545.5 192t-199.5 527z" />
<glyph unicode="H" horiz-adv-x="1569" d="M164 0v1434h323v-572h594v572h324v-1434h-324v584h-594v-584h-323z" />
<glyph unicode="I" horiz-adv-x="649" d="M164 0v1434h323v-1434h-323z" />
<glyph unicode="&#x406;" horiz-adv-x="649" d="M164 0v1434h323v-1434h-323z" />
<glyph unicode="J" horiz-adv-x="911" d="M33 14v303q83 -63 186 -63q221 0 221 328v852h322v-865q0 -285 -131 -438q-134 -156 -389 -156q-114 0 -209 39z" />
<glyph unicode="&#x408;" horiz-adv-x="911" d="M33 14v303q83 -63 186 -63q221 0 221 328v852h322v-865q0 -285 -131 -438q-134 -156 -389 -156q-114 0 -209 39z" />
<glyph unicode="K" horiz-adv-x="1329" d="M164 0v1434h323v-678h5q12 27 40 80l396 598h385l-500 -684l543 -750h-408l-418 623q-13 20 -38 79h-5v-702h-323z" />
<glyph unicode="L" horiz-adv-x="1047" d="M164 0v1434h323v-1172h531v-262h-854z" />
<glyph unicode="M" horiz-adv-x="1960" d="M164 0v1434h473l293 -850q35 -103 51 -205h6q26 116 57 207l293 848h461v-1434h-319v858q0 135 12 307h-8q-25 -133 -45 -190l-336 -975h-264l-342 965q-14 39 -45 200h-9q13 -201 13 -372v-793h-291z" />
<glyph unicode="N" horiz-adv-x="1618" d="M164 0v1434h348l569 -873q29 -43 72 -117h4q-8 52 -8 197v793h305v-1434h-326l-591 901q-50 76 -72 119h-4q8 -79 8 -232v-788h-305z" />
<glyph unicode="O" horiz-adv-x="1552" d="M74 698q0 337 193 546q197 214 526 214q305 0 495.5 -200t190.5 -531q0 -340 -197.5 -546t-511.5 -206q-305 0 -499 198q-197 201 -197 525zM414 715q0 -220 106 -345q99 -116 256 -116q161 0 259 113q104 121 104 342q0 226 -98 350q-94 121 -257 121q-174 0 -274 -133 q-96 -127 -96 -332z" />
<glyph unicode="P" horiz-adv-x="1257" d="M164 0v1434h506q542 0 542 -457q0 -211 -149 -344q-156 -139 -422 -139h-154v-494h-323zM487 739h127q258 0 258 226q0 221 -258 221h-127v-447z" />
<glyph unicode="Q" horiz-adv-x="1552" d="M74 698q0 335 190 543q197 217 531 217q302 0 491 -198q193 -202 193 -533q0 -263 -120 -448q-115 -178 -319 -252l416 -385h-420l-297 333q-288 10 -473 204q-192 200 -192 519zM414 715q0 -219 105 -344q99 -117 257 -117q161 0 259 113q104 121 104 342 q0 217 -93.5 344t-261.5 127q-174 0 -274 -133q-96 -127 -96 -332z" />
<glyph unicode="R" horiz-adv-x="1303" d="M164 0v1434h512q522 0 522 -390q0 -152 -89 -257q-85 -99 -235 -138v-4q126 -40 205 -221l187 -424h-371l-145 369q-72 180 -193 180h-70v-549h-323zM487 793h140q107 0 171 63q60 60 60 148q0 188 -225 188h-146v-399z" />
<glyph unicode="S" horiz-adv-x="1098" d="M100 1032q0 193 142.5 309.5t380.5 116.5q209 0 348 -55v-299q-145 100 -330 100q-92 0 -146.5 -40t-54.5 -105q0 -69 48 -115q45 -43 174 -104q191 -92 273 -179q99 -106 99 -258q0 -178 -117 -290q-144 -138 -440 -138q-223 0 -371 80v320q171 -146 379 -146 q108 0 163 47q46 40 46 99q0 69 -68 126q-54 44 -198 111q-328 155 -328 420z" />
<glyph unicode="T" horiz-adv-x="1200" d="M31 1171v263h1140v-263h-409v-1171h-324v1171h-407z" />
<glyph unicode="U" horiz-adv-x="1481" d="M147 606v828h324v-832q0 -348 272 -348q267 0 267 336v844h323v-813q0 -646 -602 -646q-584 0 -584 631z" />
<glyph unicode="V" horiz-adv-x="1366" d="M10 1434h348l299 -998q25 -81 29 -143h6q7 69 31 147l297 994h338l-494 -1434h-366z" />
<glyph unicode="W" horiz-adv-x="2058" d="M18 1434h353l202 -955q13 -58 19 -164h6q4 79 29 168l260 951h346l235 -963q13 -51 23 -154h4q4 83 21 160l198 957h326l-379 -1434h-358l-238 920q-18 69 -23 161h-4q-9 -95 -26 -161l-244 -920h-373z" />
<glyph unicode="X" horiz-adv-x="1341" d="M6 0l457 717l-418 717h393l205 -430q25 -52 43 -121h4q12 42 45 125l228 426h360l-430 -711l442 -723h-383l-247 467q-13 24 -29 96h-4q-8 -33 -33 -100l-248 -463h-385z" />
<glyph unicode="Y" horiz-adv-x="1243" d="M0 1434h369l231 -535q6 -13 33 -117h4q13 73 31 113l235 539h342l-467 -924v-510h-323v504z" />
<glyph unicode="Z" horiz-adv-x="1243" d="M41 0v186l735 985h-682v263h1100v-181l-719 -991h721v-262h-1155z" />
<glyph unicode="[" horiz-adv-x="756" d="M217 -326v1760h469v-201h-209v-1358h209v-201h-469z" />
<glyph unicode="\" horiz-adv-x="893" d="M0 1434h281l680 -1672h-279z" />
<glyph unicode="]" horiz-adv-x="756" d="M70 -125h211v1358h-211v201h471v-1760h-471v201z" />
<glyph unicode="^" horiz-adv-x="1448" d="M203 610l430 848h162l454 -848h-243l-287 586h-4l-271 -586h-241z" />
<glyph unicode="_" horiz-adv-x="850" d="M0 -178h850v-119h-850v119z" />
<glyph unicode="`" horiz-adv-x="643" d="M55 1509h281l260 -323h-227z" />
<glyph unicode="a" horiz-adv-x="1102" d="M57 285q0 297 353 344l278 37q0 168 -182 168q-184 0 -348 -109v238q62 32 171 57q120 29 218 29q438 0 438 -437v-612h-299v147h-4q-103 -172 -305 -172q-152 0 -238 88q-82 84 -82 222zM348 322q0 -53 37 -88t102 -35q89 0 145 61.5t56 155.5v69l-186 -24 q-154 -20 -154 -139z" />
<glyph unicode="b" horiz-adv-x="1270" d="M133 0v1516h316v-646h4q115 179 333 179q209 0 317 -151q95 -134 95 -357q0 -256 -125 -411t-334 -155q-190 0 -286 144h-4v-119h-316zM444 446q0 -97 56.5 -163t146.5 -66q109 0 168 84t59 236q0 122 -51 193q-56 77 -159 77q-95 0 -157.5 -71t-62.5 -185v-105z" />
<glyph unicode="c" horiz-adv-x="983" d="M72 487q0 266 162 417q156 145 413 145q182 0 262 -48v-268q-99 74 -221 74q-134 0 -213 -78q-82 -80 -82 -221q0 -135 76.5 -213t208.5 -78q118 0 231 74v-254q-106 -62 -309 -62q-238 0 -385 147q-143 142 -143 365z" />
<glyph unicode="d" horiz-adv-x="1268" d="M72 489q0 256 131 410q129 150 336 150q198 0 276 -142h4v609h316v-1516h-316v141h-4q-108 -166 -317 -166q-180 0 -295 120q-131 137 -131 394zM393 498q0 -142 63 -215q56 -66 152 -66q94 0 155 74q62 78 62 207v77q0 101 -58 166.5t-151 65.5q-106 0 -164.5 -84 t-58.5 -225z" />
<glyph unicode="e" horiz-adv-x="1108" d="M72 496q0 270 166 422q143 131 346 131q233 0 357 -145q112 -131 112 -349v-133h-668q16 -223 281 -223q168 0 297 80v-228q-142 -76 -369 -76q-251 0 -388 140q-134 137 -134 381zM383 616h377q0 220 -178 220q-79 0 -136 -68q-52 -62 -63 -152z" />
<glyph unicode="f" horiz-adv-x="784" d="M45 791v233h172v127q0 170 108 276q115 113 316 113q94 0 160 -20v-246q-63 24 -117 24q-152 0 -152 -165v-109h234v-233h-234v-791h-315v791h-172z" />
<glyph unicode="g" horiz-adv-x="1268" d="M72 483q0 264 132 418q127 148 333 148q188 0 280 -144h4v119h316v-907q0 -269 -147 -424q-166 -174 -496 -174q-207 0 -328 59v266q158 -92 319 -92q167 0 255 91q81 83 81 223v81h-4q-108 -172 -319 -172q-196 0 -311 138t-115 370zM393 494q0 -125 54 -199 q57 -78 159 -78q98 0 158.5 75.5t60.5 199.5v81q0 94 -53 161q-59 73 -154 73q-105 0 -165 -82t-60 -231z" />
<glyph unicode="h" horiz-adv-x="1233" d="M133 0v1516h316v-644h4q115 177 315 177q348 0 348 -420v-629h-315v582q0 225 -164 225q-87 0 -139 -67q-49 -62 -49 -156v-584h-316z" />
<glyph unicode="i" horiz-adv-x="582" d="M111 1350q0 72 51.5 116.5t130.5 44.5q80 0 131 -45.5t51 -115.5q0 -71 -50 -117.5t-132 -46.5q-81 0 -131.5 47.5t-50.5 116.5zM133 0v1024h316v-1024h-316z" />
<glyph unicode="&#x456;" horiz-adv-x="582" d="M111 1350q0 72 51.5 116.5t130.5 44.5q80 0 131 -45.5t51 -115.5q0 -71 -50 -117.5t-132 -46.5q-81 0 -131.5 47.5t-50.5 116.5zM133 0v1024h316v-1024h-316z" />
<glyph unicode="j" horiz-adv-x="582" d="M-133 -203q65 -37 117 -37q149 0 149 234v1030h316v-1006q0 -199 -87 -330q-111 -169 -344 -169q-68 0 -151 30v248zM111 1350q0 72 51.5 116.5t130.5 44.5q80 0 131 -45.5t51 -115.5q0 -71 -50 -117.5t-132 -46.5q-81 0 -131.5 47.5t-50.5 116.5z" />
<glyph unicode="&#x458;" horiz-adv-x="582" d="M-133 -203q65 -37 117 -37q149 0 149 234v1030h316v-1006q0 -199 -87 -330q-111 -169 -344 -169q-68 0 -151 30v248zM111 1350q0 72 51.5 116.5t130.5 44.5q80 0 131 -45.5t51 -115.5q0 -71 -50 -117.5t-132 -46.5q-81 0 -131.5 47.5t-50.5 116.5z" />
<glyph unicode="k" horiz-adv-x="1145" d="M133 0v1516h316v-965h4l305 473h375l-367 -481l393 -543h-379l-327 508h-4v-508h-316z" />
<glyph unicode="l" horiz-adv-x="582" d="M133 0v1516h316v-1516h-316z" />
<glyph unicode="m" horiz-adv-x="1876" d="M133 0v1024h316v-160h4q44 75 123 125q95 60 208 60q218 0 297 -191q117 191 344 191q334 0 334 -412v-637h-315v584q0 223 -164 223q-78 0 -127 -67t-49 -167v-573h-316v590q0 217 -161 217q-81 0 -129.5 -64t-48.5 -174v-569h-316z" />
<glyph unicode="n" horiz-adv-x="1239" d="M133 0v1024h316v-162h4q112 187 329 187q340 0 340 -422v-627h-315v569q0 238 -170 238q-83 0 -135.5 -64t-52.5 -159v-584h-316z" />
<glyph unicode="o" horiz-adv-x="1251" d="M72 508q0 259 158 403q150 138 405 138q264 0 411 -154q134 -142 134 -369q0 -252 -147 -400q-150 -151 -412 -151q-257 0 -403 143.5t-146 389.5zM393 512q0 -295 238 -295q227 0 227 303q0 287 -229 287q-109 0 -171 -74q-65 -77 -65 -221z" />
<glyph unicode="p" horiz-adv-x="1270" d="M133 -471v1495h316v-154h4q115 179 329 179q210 0 319 -151q97 -135 97 -357q0 -256 -126.5 -411t-336.5 -155q-186 0 -282 144h-4v-590h-316zM444 457q0 -106 56 -173t147 -67q109 0 168 84t59 236q0 270 -210 270q-96 0 -158 -73t-62 -195v-82z" />
<glyph unicode="q" horiz-adv-x="1268" d="M72 487q0 261 134 415q128 147 331 147q188 0 278 -144h4v119h316v-1495h-316v612h-4q-107 -166 -315 -166q-181 0 -296 119q-132 136 -132 393zM393 496q0 -137 64 -212q57 -67 147 -67q101 0 161 76t60 196v82q0 98 -55 165q-58 71 -152 71q-105 0 -165 -83t-60 -228z " />
<glyph unicode="r" horiz-adv-x="815" d="M133 0v1024h316v-190h4q75 208 270 208q49 0 78 -12v-291q-57 31 -133 31q-104 0 -161.5 -75.5t-57.5 -205.5v-489h-316z" />
<glyph unicode="s" horiz-adv-x="901" d="M94 27v256q154 -93 293 -93q150 0 150 93q0 41 -36 67t-157 72q-125 47 -182 108q-68 73 -68 193q0 147 116 236.5t314 89.5q127 0 254 -41v-244q-119 70 -250 70q-125 0 -125 -86q0 -46 35 -74q31 -24 125 -58q138 -49 202 -112q75 -74 75 -191q0 -148 -109 -238 q-120 -100 -340 -100q-162 0 -297 52z" />
<glyph unicode="t" horiz-adv-x="797" d="M41 791v233h166v221l315 90v-311h230v-233h-230v-414q0 -160 127 -160q50 0 103 29v-234q-71 -37 -211 -37q-334 0 -334 347v469h-166z" />
<glyph unicode="u" horiz-adv-x="1239" d="M117 406v618h315v-590q0 -217 172 -217q83 0 135 59t52 162v586h315v-1024h-315v156h-5q-116 -181 -313 -181q-356 0 -356 431z" />
<glyph unicode="v" horiz-adv-x="1110" d="M4 1024h338l178 -631q30 -105 35 -182h4q7 71 37 176l182 637h330l-381 -1024h-360z" />
<glyph unicode="w" horiz-adv-x="1632" d="M16 1024h322l141 -668q9 -42 15 -114h6q5 68 18 118l176 664h301l158 -668q7 -27 14 -116h7q4 56 16 116l133 668h293l-295 -1024h-332l-151 600q-14 56 -17 131h-6q-7 -76 -20 -127l-162 -604h-328z" />
<glyph unicode="x" horiz-adv-x="1130" d="M8 0l346 510l-325 514h366l146 -287q29 -57 41 -96h4q16 47 43 98l149 285h344l-338 -496l336 -528h-364l-148 276q-21 40 -43 93h-4q-15 -43 -41 -90l-149 -279h-363z" />
<glyph unicode="y" horiz-adv-x="1102" d="M-4 1024h350l191 -623q19 -63 28 -137h4q10 60 33 135l193 625h313l-416 -1106q-150 -399 -452 -399q-110 0 -189 26v252q63 -37 137 -37q122 0 170 115l54 127z" />
<glyph unicode="z" horiz-adv-x="981" d="M25 0v131l514 660h-463v233h864v-156l-487 -635h491v-233h-919z" />
<glyph unicode="{" horiz-adv-x="756" d="M106 463v184q152 0 152 191v223q0 194 86 279q96 94 330 94v-187q-160 0 -160 -174v-213q0 -240 -154 -303v-4q154 -62 154 -307v-205q0 -98 37.5 -139t122.5 -41v-187q-238 0 -333 94q-83 83 -83 271v240q0 184 -152 184z" />
<glyph unicode="|" horiz-adv-x="668" d="M209 -481v2048h252v-2048h-252z" />
<glyph unicode="}" horiz-adv-x="756" d="M84 -139q88 0 124 42t36 136v213q0 238 153 299v4q-153 63 -153 313v205q0 174 -160 174v187q233 0 329 -95q85 -85 85 -274v-229q0 -189 153 -189v-184q-153 0 -153 -187v-231q0 -194 -82 -277q-94 -94 -332 -94v187z" />
<glyph unicode="~" horiz-adv-x="1448" d="M195 399q5 160 81 257q84 108 236 108q112 0 240 -74q127 -77 178 -77q53 0 86 46t35 113h204q-5 -165 -86 -263q-85 -101 -227 -101q-106 0 -258 88q-110 63 -156 63q-123 0 -129 -160h-204z" />
<glyph unicode="&#xa0;" horiz-adv-x="565" d="M0 0z" />
<glyph unicode="&#xa1;" horiz-adv-x="670" d="M152 883q0 70 51 118t133 48q80 0 131 -48.5t51 -117.5q0 -72 -51.5 -117t-130.5 -45q-81 0 -132.5 46t-51.5 116zM172 -408l37 990h256l39 -990h-332z" />
<glyph unicode="&#xa2;" d="M170 657q0 243 144 393q132 137 348 160v211h161v-207q109 -6 181 -45v-272q-76 58 -181 70v-574q107 17 181 68v-254q-74 -43 -181 -55v-189h-161v184q-210 12 -347 144q-145 141 -145 366zM467 678q0 -222 195 -279v559q-195 -59 -195 -280z" />
<glyph unicode="&#xa3;" d="M143 0v227q193 52 193 269v116h-172v217h172v187q0 194 118 315q123 127 334 127q126 0 234 -49v-258q-98 66 -209 66q-184 0 -184 -230v-158h268v-217h-268v-86q0 -185 -152 -284h637v-242h-971z" />
<glyph unicode="&#xa4;" horiz-adv-x="1139" d="M51 358l142 138q-66 109 -66 229q0 122 66 229l-142 140l142 145l143 -141q106 65 233 65t234 -65l143 141l141 -145l-141 -140q68 -110 68 -229q0 -117 -68 -229l141 -138l-141 -145l-143 141q-107 -65 -234 -65t-233 65l-143 -141zM330 727q0 -99 70 -168.5t169 -69.5 q100 0 171 70t71 168q0 99 -73.5 168.5t-168.5 69.5q-99 0 -169 -69.5t-70 -168.5z" />
<glyph unicode="&#xa5;" d="M41 1434h321l209 -484q15 -31 37 -86h4q5 13 37 90l203 480h305l-354 -641h252v-189h-305v-153h305v-189h-305v-262h-308v262h-315v189h315v153h-315v189h256z" />
<glyph unicode="&#xa6;" horiz-adv-x="668" d="M209 414h252v-895h-252v895zM209 684v883h252v-883h-252z" />
<glyph unicode="&#xa7;" horiz-adv-x="993" d="M131 731q0 143 125 234q-88 87 -88 215q0 138 99 223q103 88 278 88q138 0 260 -55v-250q-140 96 -260 96q-123 0 -123 -94q0 -54 64 -96q33 -22 161 -78q254 -113 254 -309q0 -166 -149 -271q82 -75 82 -174q0 -149 -108.5 -237.5t-285.5 -88.5q-165 0 -290 68v246 q178 -105 311 -105q127 0 127 99q0 61 -96 110q-31 15 -99 47q-262 128 -262 332zM367 754q0 -57 51 -102t178 -99q66 43 66 123q0 55 -42 91q-47 41 -188 97q-65 -38 -65 -110z" />
<glyph unicode="&#xa8;" horiz-adv-x="946" d="M86 1323q0 60 43.5 98.5t110.5 38.5t110 -38.5t43 -98.5q0 -59 -42 -98t-111 -39q-68 0 -111 39.5t-43 97.5zM545 1323q0 60 43.5 98.5t109.5 38.5q67 0 110.5 -39t43.5 -98t-42 -98t-112 -39q-68 0 -110.5 39.5t-42.5 97.5z" />
<glyph unicode="&#xa9;" horiz-adv-x="1790" d="M131 713q0 315 219.5 530t550.5 215q324 0 539 -203q221 -209 221 -536q0 -317 -221.5 -530.5t-546.5 -213.5q-333 0 -547.5 207t-214.5 531zM264 715q0 -275 185 -454q180 -173 448 -173q262 0 446.5 178.5t184.5 448.5q0 272 -180.5 451t-450.5 179q-278 0 -458 -185 q-175 -179 -175 -445zM446 696q0 234 148 375q143 135 369 135q124 0 239 -55v-230q-98 76 -244 76q-109 0 -185 -69q-85 -78 -85 -219q0 -125 83 -201q77 -72 194 -72q141 0 239 76v-217q-124 -68 -274 -68q-210 0 -348 136q-136 133 -136 333z" />
<glyph unicode="&#xaa;" horiz-adv-x="840" d="M72 915q0 211 262 244l192 25q0 114 -139 114q-117 0 -246 -77v176q125 57 287 57q311 0 311 -299v-438h-213v86h-4q-86 -107 -219 -107q-101 0 -166 61.5t-65 157.5zM287 942q0 -88 104 -88q54 0 94.5 39t40.5 92v70l-123 -17q-116 -15 -116 -96z" />
<glyph unicode="&#xab;" horiz-adv-x="1190" d="M53 537l330 344h266l-334 -344l336 -336h-268zM541 537l327 344h269l-334 -344l334 -336h-269z" />
<glyph unicode="&#xac;" horiz-adv-x="1448" d="M238 655v203h974v-592h-202v389h-772z" />
<glyph unicode="&#xad;" horiz-adv-x="827" d="M143 436v221h547v-221h-547z" />
<glyph unicode="&#xae;" horiz-adv-x="1790" d="M131 713q0 315 219.5 530t550.5 215q324 0 539 -204q221 -209 221 -537q0 -317 -221.5 -529.5t-546.5 -212.5q-333 0 -547.5 207t-214.5 531zM264 715q0 -275 185 -454q180 -173 448 -173q262 0 446.5 177.5t184.5 447.5q0 273 -180.5 452.5t-450.5 179.5 q-278 0 -458 -185q-175 -179 -175 -445zM563 264v922h320q370 0 370 -262q0 -189 -217 -244v-4q89 -20 142 -146l110 -266h-254l-76 232q-40 122 -110 122h-74v-354h-211zM774 780h111q139 0 139 119q0 111 -160 111h-90v-230z" />
<glyph unicode="&#xaf;" horiz-adv-x="850" d="M0 1397v119h850v-119h-850z" />
<glyph unicode="&#xb0;" horiz-adv-x="778" d="M115 1178q0 118 83 199t201 81t201.5 -81.5t83.5 -198.5q0 -118 -83.5 -200.5t-201.5 -82.5t-201 82t-83 201zM270 1178q0 -54 38 -92.5t91 -38.5t91 38.5t38 92.5q0 53 -37.5 91t-91.5 38t-91.5 -37.5t-37.5 -91.5z" />
<glyph unicode="&#xb1;" horiz-adv-x="1448" d="M238 0v203h972v-203h-972zM242 694v203h383v391h202v-391h385v-203h-385v-387h-202v387h-383z" />
<glyph unicode="&#xb2;" horiz-adv-x="733" d="M59 584v157l248 234q34 32 56 57.5t35 47.5t18.5 42.5t5.5 44.5q0 48 -30 72.5t-75 24.5q-49 0 -103 -22.5t-108 -70.5v205q56 38 120 58t130 20q68 0 122.5 -17.5t93 -50.5t59 -80t20.5 -106q0 -42 -12.5 -82t-39 -81t-67.5 -84.5t-98 -94.5l-104 -92v-4h334v-178h-605z " />
<glyph unicode="&#xb3;" horiz-adv-x="733" d="M72 616v181q107 -68 221 -68q149 0 149 102q0 103 -172 103h-116v166h112q150 0 150 96q0 90 -119 90q-54 0 -103 -16.5t-96 -48.5v176q50 29 109.5 43t130.5 14q140 0 215 -63q74 -62 74 -158q0 -149 -144 -195v-4q87 -20 129.5 -70t42.5 -128q0 -61 -25.5 -111.5 t-72 -86.5t-112 -55.5t-144.5 -19.5q-66 0 -123.5 13.5t-105.5 39.5z" />
<glyph unicode="&#xb4;" horiz-adv-x="621" d="M55 1186l260 323h281l-313 -323h-228z" />
<glyph unicode="&#xb5;" horiz-adv-x="1253" d="M133 -344v1368h316v-561q0 -240 163 -240q78 0 132 48q61 52 61 141v612h317v-1024h-313v131h-4q-27 -64 -87 -105.5t-128 -41.5q-97 0 -141 61h-5l2 -389h-313z" />
<glyph unicode="&#xb6;" horiz-adv-x="1042" d="M92 1139q0 131 88 214q85 81 209 81h557v-162h-117v-1272h-174v1272h-118v-1272h-177v836q-115 7 -190 90q-78 86 -78 213z" />
<glyph unicode="&#xb7;" horiz-adv-x="555" d="M92 653q0 73 53.5 118.5t133.5 45.5t132 -46.5t52 -117.5q0 -73 -52.5 -119.5t-136.5 -46.5q-79 0 -131 50q-51 47 -51 116z" />
<glyph unicode="&#xb8;" horiz-adv-x="440" d="M51 -313q38 -6 72 -6q123 0 123 73q0 66 -111 66q-12 0 -37 -2v182h172v-82q187 -8 187 -166q0 -207 -318 -207q-45 0 -88 4v138z" />
<glyph unicode="&#xb9;" horiz-adv-x="733" d="M94 1204v176l410 76v-698h172v-174h-563v174h184v489z" />
<glyph unicode="&#xba;" horiz-adv-x="934" d="M70 1073q0 184 114 286q108 95 287 95q189 0 293 -110q94 -99 94 -257q0 -183 -106.5 -287t-292.5 -104q-189 0 -292 104q-97 99 -97 273zM301 1077q0 -207 164 -207q160 0 160 209q0 201 -160 201q-164 0 -164 -203z" />
<glyph unicode="&#xbb;" horiz-adv-x="1190" d="M53 201l336 336l-334 344h267l329 -344l-329 -336h-269zM541 201l333 336l-331 344h266l328 -344l-328 -336h-268z" />
<glyph unicode="&#xbc;" horiz-adv-x="1898" d="M94 1204v176l410 76v-698h172v-174h-563v174h184v489zM367 0l903 1434h250l-904 -1434h-249zM1061 176v135l330 539h258v-518h110v-156h-110v-176h-213v176h-375zM1235 332h201v250q0 23 1 44t3 40h-8q-8 -17 -17.5 -36.5t-21.5 -39.5z" />
<glyph unicode="&#xbd;" horiz-adv-x="1898" d="M94 1204v176l410 76v-698h172v-174h-563v174h184v489zM367 0l903 1434h250l-904 -1434h-249zM1221 0v158l247 233q34 32 56.5 57.5t35.5 47.5t18 43t5 45q0 48 -29.5 72t-74.5 24q-50 0 -103.5 -22t-107.5 -70v205q55 38 119.5 57.5t130.5 19.5q68 0 122 -17.5 t92.5 -50.5t59 -80t20.5 -106q0 -42 -12.5 -81.5t-39 -80.5t-67.5 -85t-98 -95l-104 -92v-4h334v-178h-604z" />
<glyph unicode="&#xbe;" horiz-adv-x="1898" d="M72 616v181q107 -68 221 -68q149 0 149 102q0 103 -172 103h-116v166h112q150 0 150 96q0 90 -119 90q-54 0 -103 -16.5t-96 -48.5v176q50 29 109.5 43t130.5 14q140 0 215 -63q74 -62 74 -158q0 -149 -144 -195v-4q87 -20 129.5 -70t42.5 -128q0 -61 -25.5 -111.5 t-72 -86.5t-112 -55.5t-144.5 -19.5q-66 0 -123.5 13.5t-105.5 39.5zM367 0l903 1434h250l-904 -1434h-249zM1061 176v135l330 539h258v-518h110v-156h-110v-176h-213v176h-375zM1235 332h201v250q0 23 1 44t3 40h-8q-8 -17 -17.5 -36.5t-21.5 -39.5z" />
<glyph unicode="&#xbf;" horiz-adv-x="897" d="M31 -70q0 208 209 379q78 65 104 101q41 56 41 133v55h260v-84q0 -183 -143 -303q-88 -73 -119 -119q-37 -53 -37 -119q0 -61 46 -102t120 -41q166 0 313 131v-301q-153 -92 -346 -92q-226 0 -344 108q-104 96 -104 254zM326 883q0 70 51 118t133 48q81 0 132.5 -49 t51.5 -117q0 -72 -52.5 -117t-131.5 -45q-81 0 -132.5 45.5t-51.5 116.5z" />
<glyph unicode="&#xc0;" horiz-adv-x="1440" d="M10 0l522 1434h383l510 -1434h-352l-102 319h-510l-101 -319h-350zM530 567h367l-154 482q-18 57 -24 129h-8q-6 -66 -25 -125zM375 1890h281l260 -323h-227z" />
<glyph unicode="&#xc1;" horiz-adv-x="1440" d="M10 0l522 1434h383l510 -1434h-352l-102 319h-510l-101 -319h-350zM530 567h367l-154 482q-18 57 -24 129h-8q-6 -66 -25 -125zM495 1567l260 323h281l-313 -323h-228z" />
<glyph unicode="&#xc2;" horiz-adv-x="1440" d="M10 0l522 1434h383l510 -1434h-352l-102 319h-510l-101 -319h-350zM530 567h367l-154 482q-18 57 -24 129h-8q-6 -66 -25 -125zM359 1567l235 325h248l236 -325h-207l-158 188l-147 -188h-207z" />
<glyph unicode="&#xc3;" horiz-adv-x="1440" d="M10 0l522 1434h383l510 -1434h-352l-102 319h-510l-101 -319h-350zM530 567h367l-154 482q-18 57 -24 129h-8q-6 -66 -25 -125zM358 1567q0 137 54 215t155 78q80 0 168 -49q76 -44 120 -44q78 0 78 111h144q0 -140 -55.5 -216.5t-151.5 -76.5q-86 0 -168 43 q-90 47 -123 47q-80 0 -80 -108h-141z" />
<glyph unicode="&#xc4;" horiz-adv-x="1440" d="M10 0l522 1434h383l510 -1434h-352l-102 319h-510l-101 -319h-350zM530 567h367l-154 482q-18 57 -24 129h-8q-6 -66 -25 -125zM333 1704q0 60 43.5 98.5t110.5 38.5t110 -38.5t43 -98.5q0 -59 -42 -98t-111 -39q-68 0 -111 39.5t-43 97.5zM792 1704q0 60 43.5 98.5 t109.5 38.5q67 0 110.5 -39t43.5 -98t-42 -98t-112 -39q-68 0 -110.5 39.5t-42.5 97.5z" />
<glyph unicode="&#xc5;" horiz-adv-x="1440" d="M10 0l512 1407q-53 54 -53 137q0 112 81 175q71 57 173 57q114 0 184 -63.5t70 -164.5q0 -80 -53 -137l501 -1411h-352l-102 319h-510l-101 -319h-350zM535 584h358l-152 465q-13 42 -22 120h-8q-8 -71 -23 -116zM616 1546q0 -98 103 -98q49 0 79 30q27 28 27 68 q0 42 -28.5 70.5t-77.5 28.5q-103 0 -103 -99z" />
<glyph unicode="&#xc6;" horiz-adv-x="1915" d="M-2 0l725 1434h1094v-263h-504v-319h469v-262h-469v-328h536v-262h-858v319h-471l-147 -319h-375zM631 567h360v604h-78z" />
<glyph unicode="&#xc7;" horiz-adv-x="1278" d="M74 686q0 346 213 559t551 213q209 0 354 -53v-311q-145 86 -328 86q-195 0 -318 -119q-132 -128 -132 -352q0 -208 117 -331.5t315 -123.5q189 0 346 92v-295q-139 -67 -363 -76v-57q187 -8 187 -166q0 -207 -318 -207q-45 0 -88 4v138q38 -6 72 -6q123 0 123 73 q0 66 -111 66q-12 0 -37 -2v166q-281 36 -436 233q-147 187 -147 469z" />
<glyph unicode="&#xc8;" horiz-adv-x="1090" d="M164 0v1434h827v-263h-504v-319h469v-262h-469v-328h537v-262h-860zM225 1890h281l260 -323h-227z" />
<glyph unicode="&#xc9;" horiz-adv-x="1090" d="M164 0v1434h827v-263h-504v-319h469v-262h-469v-328h537v-262h-860zM393 1567l260 323h281l-313 -323h-228z" />
<glyph unicode="&#xca;" horiz-adv-x="1090" d="M164 0v1434h827v-263h-504v-319h469v-262h-469v-328h537v-262h-860zM213 1567l235 325h248l236 -325h-207l-158 188l-147 -188h-207z" />
<glyph unicode="&#xcb;" horiz-adv-x="1090" d="M164 0v1434h827v-263h-504v-319h469v-262h-469v-328h537v-262h-860zM200 1704q0 60 43.5 98.5t110.5 38.5t110 -38.5t43 -98.5q0 -59 -42 -98t-111 -39q-68 0 -111 39.5t-43 97.5zM659 1704q0 60 43.5 98.5t109.5 38.5q67 0 110.5 -39t43.5 -98t-42 -98t-112 -39 q-68 0 -110.5 39.5t-42.5 97.5z" />
<glyph unicode="&#xcc;" horiz-adv-x="649" d="M164 0v1434h323v-1434h-323zM-8 1890h281l260 -323h-227z" />
<glyph unicode="&#xcd;" horiz-adv-x="649" d="M164 0v1434h323v-1434h-323zM110 1567l260 323h281l-313 -323h-228z" />
<glyph unicode="&#xce;" horiz-adv-x="649" d="M164 0v1434h323v-1434h-323zM-27 1567l235 325h248l236 -325h-207l-158 188l-147 -188h-207z" />
<glyph unicode="&#xcf;" horiz-adv-x="649" d="M164 0v1434h323v-1434h-323zM-52 1704q0 60 43.5 98.5t110.5 38.5t110 -38.5t43 -98.5q0 -59 -42 -98t-111 -39q-68 0 -111 39.5t-43 97.5zM407 1704q0 60 43.5 98.5t109.5 38.5q67 0 110.5 -39t43.5 -98t-42 -98t-112 -39q-68 0 -110.5 39.5t-42.5 97.5z" />
<glyph unicode="&#xd0;" horiz-adv-x="1509" d="M0 586v266h164v582h508q764 0 764 -699q0 -334 -208.5 -534.5t-555.5 -200.5h-508v586h-164zM487 262h160q212 0 332 129q117 125 117 340q0 201 -114 318q-119 122 -337 122h-158v-319h271v-266h-271v-324z" />
<glyph unicode="&#xd1;" horiz-adv-x="1618" d="M164 0v1434h348l569 -873q29 -43 72 -117h4q-8 52 -8 197v793h305v-1434h-326l-591 901q-50 76 -72 119h-4q8 -79 8 -232v-788h-305zM487 1567q0 137 54 215t155 78q80 0 168 -49q76 -44 120 -44q78 0 78 111h144q0 -140 -55.5 -216.5t-151.5 -76.5q-86 0 -168 43 q-90 47 -123 47q-80 0 -80 -108h-141z" />
<glyph unicode="&#xd2;" horiz-adv-x="1552" d="M74 698q0 337 193 546q197 214 526 214q305 0 495.5 -200t190.5 -531q0 -340 -197.5 -546t-511.5 -206q-305 0 -499 198q-197 201 -197 525zM414 715q0 -220 106 -345q99 -116 256 -116q161 0 259 113q104 121 104 342q0 226 -98 350q-94 121 -257 121q-174 0 -274 -133 q-96 -127 -96 -332zM430 1890h281l260 -323h-227z" />
<glyph unicode="&#xd3;" horiz-adv-x="1552" d="M74 698q0 337 193 546q197 214 526 214q305 0 495.5 -200t190.5 -531q0 -340 -197.5 -546t-511.5 -206q-305 0 -499 198q-197 201 -197 525zM414 715q0 -220 106 -345q99 -116 256 -116q161 0 259 113q104 121 104 342q0 226 -98 350q-94 121 -257 121q-174 0 -274 -133 q-96 -127 -96 -332zM569 1567l260 323h281l-313 -323h-228z" />
<glyph unicode="&#xd4;" horiz-adv-x="1552" d="M74 698q0 337 193 546q197 214 526 214q305 0 495.5 -200t190.5 -531q0 -340 -197.5 -546t-511.5 -206q-305 0 -499 198q-197 201 -197 525zM414 715q0 -220 106 -345q99 -116 256 -116q161 0 259 113q104 121 104 342q0 226 -98 350q-94 121 -257 121q-174 0 -274 -133 q-96 -127 -96 -332zM430 1567l235 325h248l236 -325h-207l-158 188l-147 -188h-207z" />
<glyph unicode="&#xd5;" horiz-adv-x="1552" d="M74 698q0 337 193 546q197 214 526 214q305 0 495.5 -200t190.5 -531q0 -340 -197.5 -546t-511.5 -206q-305 0 -499 198q-197 201 -197 525zM414 715q0 -220 106 -345q99 -116 256 -116q161 0 259 113q104 121 104 342q0 226 -98 350q-94 121 -257 121q-174 0 -274 -133 q-96 -127 -96 -332zM428 1567q0 137 54 215t155 78q80 0 168 -49q76 -44 120 -44q78 0 78 111h144q0 -140 -55.5 -216.5t-151.5 -76.5q-86 0 -168 43q-90 47 -123 47q-80 0 -80 -108h-141z" />
<glyph unicode="&#xd6;" horiz-adv-x="1552" d="M74 698q0 337 193 546q197 214 526 214q305 0 495.5 -200t190.5 -531q0 -340 -197.5 -546t-511.5 -206q-305 0 -499 198q-197 201 -197 525zM414 715q0 -220 106 -345q99 -116 256 -116q161 0 259 113q104 121 104 342q0 226 -98 350q-94 121 -257 121q-174 0 -274 -133 q-96 -127 -96 -332zM392 1704q0 60 43.5 98.5t110.5 38.5t110 -38.5t43 -98.5q0 -59 -42 -98t-111 -39q-68 0 -111 39.5t-43 97.5zM851 1704q0 60 43.5 98.5t109.5 38.5q67 0 110.5 -39t43.5 -98t-42 -98t-112 -39q-68 0 -110.5 39.5t-42.5 97.5z" />
<glyph unicode="&#xd7;" horiz-adv-x="1448" d="M242 250l340 336l-340 340l141 145l344 -340l342 340l139 -151l-338 -334l340 -338l-145 -144l-338 340l-340 -340z" />
<glyph unicode="&#xd8;" horiz-adv-x="1552" d="M74 698q0 336 192 545q197 215 527 215q234 0 401 -119l129 150l125 -103l-135 -157q166 -197 166 -502q0 -340 -197.5 -546t-511.5 -206q-242 0 -422 134l-143 -170l-125 104l149 176q-155 193 -155 479zM391 709q0 -147 47 -252l578 673q-97 76 -232 76 q-184 0 -290 -141q-103 -136 -103 -356zM532 319q101 -92 244 -92q169 0 274 120q113 129 113 360q0 164 -53 288z" />
<glyph unicode="&#xd9;" horiz-adv-x="1481" d="M147 606v828h324v-832q0 -348 272 -348q267 0 267 336v844h323v-813q0 -646 -602 -646q-584 0 -584 631zM379 1890h281l260 -323h-227z" />
<glyph unicode="&#xda;" horiz-adv-x="1481" d="M147 606v828h324v-832q0 -348 272 -348q267 0 267 336v844h323v-813q0 -646 -602 -646q-584 0 -584 631zM547 1567l260 323h281l-313 -323h-228z" />
<glyph unicode="&#xdb;" horiz-adv-x="1481" d="M147 606v828h324v-832q0 -348 272 -348q267 0 267 336v844h323v-813q0 -646 -602 -646q-584 0 -584 631zM380 1567l235 325h248l236 -325h-207l-158 188l-147 -188h-207z" />
<glyph unicode="&#xdc;" horiz-adv-x="1481" d="M147 606v828h324v-832q0 -348 272 -348q267 0 267 336v844h323v-813q0 -646 -602 -646q-584 0 -584 631zM357 1704q0 60 43.5 98.5t110.5 38.5t110 -38.5t43 -98.5q0 -59 -42 -98t-111 -39q-68 0 -111 39.5t-43 97.5zM816 1704q0 60 43.5 98.5t109.5 38.5q67 0 110.5 -39 t43.5 -98t-42 -98t-112 -39q-68 0 -110.5 39.5t-42.5 97.5z" />
<glyph unicode="&#xdd;" horiz-adv-x="1243" d="M0 1434h369l231 -535q6 -13 33 -117h4q13 73 31 113l235 539h342l-467 -924v-510h-323v504zM446 1567l260 323h281l-313 -323h-228z" />
<glyph unicode="&#xde;" horiz-adv-x="1257" d="M164 0v1434h323v-211h183q542 0 542 -457q0 -212 -149 -345q-157 -140 -422 -140h-154v-281h-323zM487 528h127q258 0 258 226q0 221 -258 221h-127v-447z" />
<glyph unicode="&#xdf;" horiz-adv-x="1286" d="M133 0v1049q0 212 125 345q138 146 393 146q225 0 352 -118q117 -107 117 -273q0 -126 -77 -222q-71 -86 -179 -118v-4q363 -70 363 -399q0 -167 -110 -288q-129 -143 -359 -143q-106 0 -213 33v262q83 -53 176 -53q83 0 132.5 52.5t49.5 144.5q0 116 -89.5 183.5 t-250.5 72.5v221q108 7 171 66.5t63 160.5q0 84 -44.5 132t-119.5 48q-184 0 -184 -245v-1053h-316z" />
<glyph unicode="&#xe0;" horiz-adv-x="1102" d="M57 285q0 297 353 344l278 37q0 168 -182 168q-184 0 -348 -109v238q62 32 171 57q120 29 218 29q438 0 438 -437v-612h-299v147h-4q-103 -172 -305 -172q-152 0 -238 88q-82 84 -82 222zM348 322q0 -53 37 -88t102 -35q89 0 145 61.5t56 155.5v69l-186 -24 q-154 -20 -154 -139zM234 1509h281l260 -323h-227z" />
<glyph unicode="&#xe1;" horiz-adv-x="1102" d="M57 285q0 297 353 344l278 37q0 168 -182 168q-184 0 -348 -109v238q62 32 171 57q120 29 218 29q438 0 438 -437v-612h-299v147h-4q-103 -172 -305 -172q-152 0 -238 88q-82 84 -82 222zM348 322q0 -53 37 -88t102 -35q89 0 145 61.5t56 155.5v69l-186 -24 q-154 -20 -154 -139zM350 1186l260 323h281l-313 -323h-228z" />
<glyph unicode="&#xe2;" horiz-adv-x="1102" d="M57 285q0 297 353 344l278 37q0 168 -182 168q-184 0 -348 -109v238q62 32 171 57q120 29 218 29q438 0 438 -437v-612h-299v147h-4q-103 -172 -305 -172q-152 0 -238 88q-82 84 -82 222zM348 322q0 -53 37 -88t102 -35q89 0 145 61.5t56 155.5v69l-186 -24 q-154 -20 -154 -139zM195 1186l235 325h248l236 -325h-207l-158 188l-147 -188h-207z" />
<glyph unicode="&#xe3;" horiz-adv-x="1102" d="M57 285q0 297 353 344l278 37q0 168 -182 168q-184 0 -348 -109v238q62 32 171 57q120 29 218 29q438 0 438 -437v-612h-299v147h-4q-103 -172 -305 -172q-152 0 -238 88q-82 84 -82 222zM348 322q0 -53 37 -88t102 -35q89 0 145 61.5t56 155.5v69l-186 -24 q-154 -20 -154 -139zM188 1186q0 137 54 215t155 78q80 0 168 -49q76 -44 120 -44q78 0 78 111h144q0 -140 -55.5 -216.5t-151.5 -76.5q-86 0 -168 43q-90 47 -123 47q-80 0 -80 -108h-141z" />
<glyph unicode="&#xe4;" horiz-adv-x="1102" d="M57 285q0 297 353 344l278 37q0 168 -182 168q-184 0 -348 -109v238q62 32 171 57q120 29 218 29q438 0 438 -437v-612h-299v147h-4q-103 -172 -305 -172q-152 0 -238 88q-82 84 -82 222zM348 322q0 -53 37 -88t102 -35q89 0 145 61.5t56 155.5v69l-186 -24 q-154 -20 -154 -139zM175 1323q0 60 43.5 98.5t110.5 38.5t110 -38.5t43 -98.5q0 -59 -42 -98t-111 -39q-68 0 -111 39.5t-43 97.5zM634 1323q0 60 43.5 98.5t109.5 38.5q67 0 110.5 -39t43.5 -98t-42 -98t-112 -39q-68 0 -110.5 39.5t-42.5 97.5z" />
<glyph unicode="&#xe5;" horiz-adv-x="1102" d="M57 285q0 297 353 344l278 37q0 168 -182 168q-184 0 -348 -109v238q62 32 171 57q120 29 218 29q438 0 438 -437v-612h-299v147h-4q-103 -172 -305 -172q-152 0 -238 88q-82 84 -82 222zM348 322q0 -53 37 -88t102 -35q89 0 145 61.5t56 155.5v69l-186 -24 q-154 -20 -154 -139zM338 1401q0 105 76 167q67 54 164 54q107 0 173 -60t66 -155q0 -102 -76 -164q-70 -57 -168 -57q-101 0 -168 59t-67 156zM477 1405q0 -94 96 -94q47 0 75 28t28 66q0 40 -28 67t-75 27q-96 0 -96 -94z" />
<glyph unicode="&#xe6;" horiz-adv-x="1696" d="M57 287q0 145 96 233t277 103l256 20q0 191 -184 191q-175 0 -344 -107v236q187 86 370 86q234 0 324 -134h4q131 134 326 134q213 0 335.5 -133.5t122.5 -364.5v-129h-667q20 -223 282 -223q160 0 297 80v-226q-156 -78 -378 -78q-270 0 -398 179h-4 q-141 -179 -362 -179q-168 0 -260.5 83t-92.5 229zM346 315q0 -49 38.5 -82.5t102.5 -33.5q84 0 141.5 58.5t57.5 156.5v45l-156 -13q-184 -14 -184 -131zM973 616h375q0 220 -177 220q-75 0 -132 -62t-66 -158z" />
<glyph unicode="&#xe7;" horiz-adv-x="983" d="M72 487q0 266 162 417q156 145 413 145q182 0 262 -48v-268q-99 74 -221 74q-134 0 -213 -78q-82 -80 -82 -221q0 -135 76.5 -213t208.5 -78q118 0 231 74v-254q-95 -55 -264 -62v-57q186 -8 186 -166q0 -207 -317 -207q-45 0 -88 4v138q38 -6 72 -6q123 0 123 73 q0 66 -111 66q-13 0 -37 -2v170q-185 36 -293 172.5t-108 326.5z" />
<glyph unicode="&#xe8;" horiz-adv-x="1108" d="M72 496q0 270 166 422q143 131 346 131q233 0 357 -145q112 -131 112 -349v-133h-668q16 -223 281 -223q168 0 297 80v-228q-142 -76 -369 -76q-251 0 -388 140q-134 137 -134 381zM383 616h377q0 220 -178 220q-79 0 -136 -68q-52 -62 -63 -152zM254 1509h281l260 -323 h-227z" />
<glyph unicode="&#xe9;" horiz-adv-x="1108" d="M72 496q0 270 166 422q143 131 346 131q233 0 357 -145q112 -131 112 -349v-133h-668q16 -223 281 -223q168 0 297 80v-228q-142 -76 -369 -76q-251 0 -388 140q-134 137 -134 381zM383 616h377q0 220 -178 220q-79 0 -136 -68q-52 -62 -63 -152zM380 1186l260 323h281 l-313 -323h-228z" />
<glyph unicode="&#xea;" horiz-adv-x="1108" d="M72 496q0 270 166 422q143 131 346 131q233 0 357 -145q112 -131 112 -349v-133h-668q16 -223 281 -223q168 0 297 80v-228q-142 -76 -369 -76q-251 0 -388 140q-134 137 -134 381zM383 616h377q0 220 -178 220q-79 0 -136 -68q-52 -62 -63 -152zM230 1186l235 325h248 l236 -325h-207l-158 188l-147 -188h-207z" />
<glyph unicode="&#xeb;" horiz-adv-x="1108" d="M72 496q0 270 166 422q143 131 346 131q233 0 357 -145q112 -131 112 -349v-133h-668q16 -223 281 -223q168 0 297 80v-228q-142 -76 -369 -76q-251 0 -388 140q-134 137 -134 381zM383 616h377q0 220 -178 220q-79 0 -136 -68q-52 -62 -63 -152zM196 1323 q0 60 43.5 98.5t110.5 38.5t110 -38.5t43 -98.5q0 -59 -42 -98t-111 -39q-68 0 -111 39.5t-43 97.5zM655 1323q0 60 43.5 98.5t109.5 38.5q67 0 110.5 -39t43.5 -98t-42 -98t-112 -39q-68 0 -110.5 39.5t-42.5 97.5z" />
<glyph unicode="&#xec;" horiz-adv-x="582" d="M133 0v1024h316v-1024h-316zM-26 1509h281l260 -323h-227z" />
<glyph unicode="&#xed;" horiz-adv-x="582" d="M133 0v1024h316v-1024h-316zM71 1186l260 323h281l-313 -323h-228z" />
<glyph unicode="&#xee;" horiz-adv-x="582" d="M133 0v1024h316v-1024h-316zM-61 1186l235 325h248l236 -325h-207l-158 188l-147 -188h-207z" />
<glyph unicode="&#xef;" horiz-adv-x="582" d="M133 0v1024h316v-1024h-316zM-85 1323q0 60 43.5 98.5t110.5 38.5t110 -38.5t43 -98.5q0 -59 -42 -98t-111 -39q-68 0 -111 39.5t-43 97.5zM374 1323q0 60 43.5 98.5t109.5 38.5q67 0 110.5 -39t43.5 -98t-42 -98t-112 -39q-68 0 -110.5 39.5t-42.5 97.5z" />
<glyph unicode="&#xf0;" horiz-adv-x="1214" d="M72 514q0 230 130 376q133 150 349 150q116 0 205 -75l4 2q-85 148 -195 237l-291 -143l-81 141l241 115q-153 121 -270 199h352q18 -12 131 -97l273 133l77 -137l-215 -104q361 -291 361 -748q0 -258 -147 -421q-151 -167 -398 -167q-254 0 -394 151q-132 144 -132 388z M393 514q0 -142 59 -221q56 -76 156 -76q99 0 156 81.5t57 221.5q0 287 -209 287q-104 0 -161.5 -79t-57.5 -214z" />
<glyph unicode="&#xf1;" horiz-adv-x="1239" d="M133 0v1024h316v-162h4q112 187 329 187q340 0 340 -422v-627h-315v569q0 238 -170 238q-83 0 -135.5 -64t-52.5 -159v-584h-316zM263 1186q0 137 54 215t155 78q80 0 168 -49q76 -44 120 -44q78 0 78 111h144q0 -140 -55.5 -216.5t-151.5 -76.5q-86 0 -168 43 q-90 47 -123 47q-80 0 -80 -108h-141z" />
<glyph unicode="&#xf2;" horiz-adv-x="1251" d="M72 508q0 259 158 403q150 138 405 138q264 0 411 -154q134 -142 134 -369q0 -252 -147 -400q-150 -151 -412 -151q-257 0 -403 143.5t-146 389.5zM393 512q0 -295 238 -295q227 0 227 303q0 287 -229 287q-109 0 -171 -74q-65 -77 -65 -221zM311 1509h281l260 -323h-227 z" />
<glyph unicode="&#xf3;" horiz-adv-x="1251" d="M72 508q0 259 158 403q150 138 405 138q264 0 411 -154q134 -142 134 -369q0 -252 -147 -400q-150 -151 -412 -151q-257 0 -403 143.5t-146 389.5zM393 512q0 -295 238 -295q227 0 227 303q0 287 -229 287q-109 0 -171 -74q-65 -77 -65 -221zM427 1186l260 323h281 l-313 -323h-228z" />
<glyph unicode="&#xf4;" horiz-adv-x="1251" d="M72 508q0 259 158 403q150 138 405 138q264 0 411 -154q134 -142 134 -369q0 -252 -147 -400q-150 -151 -412 -151q-257 0 -403 143.5t-146 389.5zM393 512q0 -295 238 -295q227 0 227 303q0 287 -229 287q-109 0 -171 -74q-65 -77 -65 -221zM269 1186l235 325h248 l236 -325h-207l-158 188l-147 -188h-207z" />
<glyph unicode="&#xf5;" horiz-adv-x="1251" d="M72 508q0 259 158 403q150 138 405 138q264 0 411 -154q134 -142 134 -369q0 -252 -147 -400q-150 -151 -412 -151q-257 0 -403 143.5t-146 389.5zM393 512q0 -295 238 -295q227 0 227 303q0 287 -229 287q-109 0 -171 -74q-65 -77 -65 -221zM266 1186q0 137 54 215 t155 78q80 0 168 -49q76 -44 120 -44q78 0 78 111h144q0 -140 -55.5 -216.5t-151.5 -76.5q-86 0 -168 43q-90 47 -123 47q-80 0 -80 -108h-141z" />
<glyph unicode="&#xf6;" horiz-adv-x="1251" d="M72 508q0 259 158 403q150 138 405 138q264 0 411 -154q134 -142 134 -369q0 -252 -147 -400q-150 -151 -412 -151q-257 0 -403 143.5t-146 389.5zM393 512q0 -295 238 -295q227 0 227 303q0 287 -229 287q-109 0 -171 -74q-65 -77 -65 -221zM247 1323q0 60 43.5 98.5 t110.5 38.5t110 -38.5t43 -98.5q0 -59 -42 -98t-111 -39q-68 0 -111 39.5t-43 97.5zM706 1323q0 60 43.5 98.5t109.5 38.5q67 0 110.5 -39t43.5 -98t-42 -98t-112 -39q-68 0 -110.5 39.5t-42.5 97.5z" />
<glyph unicode="&#xf7;" horiz-adv-x="1448" d="M238 485v203h974v-203h-974zM586 182q0 61 39 103.5t102 42.5q62 0 99.5 -40.5t37.5 -103.5t-43 -102q-39 -35 -94 -35q-59 0 -100 39.5t-41 95.5zM590 983q0 60 39 102.5t102 42.5q62 0 99.5 -40t37.5 -103t-43 -103q-39 -36 -94 -36q-58 0 -99.5 40t-41.5 97z" />
<glyph unicode="&#xf8;" horiz-adv-x="1251" d="M39 29q55 57 137 143q-104 141 -104 338q0 259 159 403q151 138 406 138q179 0 311 -82l139 147l119 -106l-139 -146q113 -143 113 -338q0 -260 -149 -404.5t-410 -144.5q-199 0 -328 86l-135 -141zM373 514q0 -72 18 -121l381 398q-58 40 -141 40q-258 0 -258 -317z M469 242q61 -45 160 -45q252 0 252 323q0 76 -19 131z" />
<glyph unicode="&#xf9;" horiz-adv-x="1239" d="M117 406v618h315v-590q0 -217 172 -217q83 0 135 59t52 162v586h315v-1024h-315v156h-5q-116 -181 -313 -181q-356 0 -356 431zM243 1509h281l260 -323h-227z" />
<glyph unicode="&#xfa;" horiz-adv-x="1239" d="M117 406v618h315v-590q0 -217 172 -217q83 0 135 59t52 162v586h315v-1024h-315v156h-5q-116 -181 -313 -181q-356 0 -356 431zM436 1186l260 323h281l-313 -323h-228z" />
<glyph unicode="&#xfb;" horiz-adv-x="1239" d="M117 406v618h315v-590q0 -217 172 -217q83 0 135 59t52 162v586h315v-1024h-315v156h-5q-116 -181 -313 -181q-356 0 -356 431zM251 1186l235 325h248l236 -325h-207l-158 188l-147 -188h-207z" />
<glyph unicode="&#xfc;" horiz-adv-x="1239" d="M117 406v618h315v-590q0 -217 172 -217q83 0 135 59t52 162v586h315v-1024h-315v156h-5q-116 -181 -313 -181q-356 0 -356 431zM232 1323q0 60 43.5 98.5t110.5 38.5t110 -38.5t43 -98.5q0 -59 -42 -98t-111 -39q-68 0 -111 39.5t-43 97.5zM691 1323q0 60 43.5 98.5 t109.5 38.5q67 0 110.5 -39t43.5 -98t-42 -98t-112 -39q-68 0 -110.5 39.5t-42.5 97.5z" />
<glyph unicode="&#xfd;" horiz-adv-x="1102" d="M-4 1024h350l191 -623q19 -63 28 -137h4q10 60 33 135l193 625h313l-416 -1106q-150 -399 -452 -399q-110 0 -189 26v252q63 -37 137 -37q122 0 170 115l54 127zM376 1186l260 323h281l-313 -323h-228z" />
<glyph unicode="&#xfe;" horiz-adv-x="1270" d="M133 -471v1987h316v-646h4q115 179 329 179q210 0 319 -151q97 -135 97 -357q0 -256 -126.5 -411t-336.5 -155q-186 0 -282 144h-4v-590h-316zM444 457q0 -106 56 -173t147 -67q109 0 168 84t59 236q0 270 -210 270q-96 0 -158 -73t-62 -195v-82z" />
<glyph unicode="&#xff;" horiz-adv-x="1102" d="M-4 1024h350l191 -623q19 -63 28 -137h4q10 60 33 135l193 625h313l-416 -1106q-150 -399 -452 -399q-110 0 -189 26v252q63 -37 137 -37q122 0 170 115l54 127zM181 1323q0 60 43.5 98.5t110.5 38.5t110 -38.5t43 -98.5q0 -59 -42 -98t-111 -39q-68 0 -111 39.5 t-43 97.5zM640 1323q0 60 43.5 98.5t109.5 38.5q67 0 110.5 -39t43.5 -98t-42 -98t-112 -39q-68 0 -110.5 39.5t-42.5 97.5z" />
<glyph unicode="&#x131;" horiz-adv-x="582" d="M133 0v1024h316v-1024h-316z" />
<glyph unicode="&#x152;" horiz-adv-x="1925" d="M74 698q0 339 192.5 549.5t517.5 210.5q63 0 152 -12q88 -12 108 -12h783v-263h-504v-323h469v-264h-469v-322h537v-262h-828q-27 0 -117 -13q-90 -12 -157 -12q-312 0 -502 210q-182 201 -182 513zM416 711q0 -213 106 -338q100 -119 256 -119q115 0 213 51v823 q-85 52 -209 52q-172 0 -272 -136q-94 -128 -94 -333z" />
<glyph unicode="&#x153;" horiz-adv-x="1892" d="M72 508q0 258 155 405q146 138 381 138q146 0 258 -59q91 -47 135 -118h5q117 175 376 175q219 0 341 -142q114 -132 114 -350v-135h-670q15 -223 283 -223q167 0 295 80v-228q-142 -76 -346 -76q-253 0 -391 189h-4q-137 -187 -408 -187q-227 0 -370 135 q-154 144 -154 396zM393 512q0 -293 236 -293q229 0 229 297q0 136 -59 213.5t-168 77.5q-111 0 -173 -74q-65 -78 -65 -221zM1167 616h375q0 220 -174 220q-84 0 -141 -72q-50 -62 -60 -148z" />
<glyph unicode="&#x178;" horiz-adv-x="1243" d="M0 1434h369l231 -535q6 -13 33 -117h4q13 73 31 113l235 539h342l-467 -924v-510h-323v504zM246 1704q0 60 43.5 98.5t110.5 38.5t110 -38.5t43 -98.5q0 -59 -42 -98t-111 -39q-68 0 -111 39.5t-43 97.5zM705 1704q0 60 43.5 98.5t109.5 38.5q67 0 110.5 -39t43.5 -98 t-42 -98t-112 -39q-68 0 -110.5 39.5t-42.5 97.5z" />
<glyph unicode="&#x2c6;" horiz-adv-x="784" d="M31 1186l235 325h248l236 -325h-207l-158 188l-147 -188h-207z" />
<glyph unicode="&#x2da;" horiz-adv-x="555" d="M39 1401q0 105 76 167q67 54 164 54q107 0 173 -60t66 -155q0 -102 -76 -164q-70 -57 -168 -57q-101 0 -168 59t-67 156zM178 1405q0 -94 96 -94q47 0 75 28t28 66q0 40 -28 67t-75 27q-96 0 -96 -94z" />
<glyph unicode="&#x2dc;" horiz-adv-x="784" d="M35 1186q0 137 54 215t155 78q80 0 168 -49q76 -44 120 -44q78 0 78 111h144q0 -140 -55.5 -216.5t-151.5 -76.5q-86 0 -168 43q-90 47 -123 47q-80 0 -80 -108h-141z" />
<glyph unicode="&#x2000;" horiz-adv-x="946" />
<glyph unicode="&#x2001;" horiz-adv-x="1892" />
<glyph unicode="&#x2002;" horiz-adv-x="946" />
<glyph unicode="&#x2003;" horiz-adv-x="1892" />
<glyph unicode="&#x2004;" horiz-adv-x="630" />
<glyph unicode="&#x2005;" horiz-adv-x="473" />
<glyph unicode="&#x2006;" horiz-adv-x="315" />
<glyph unicode="&#x2007;" horiz-adv-x="315" />
<glyph unicode="&#x2008;" horiz-adv-x="236" />
<glyph unicode="&#x2009;" horiz-adv-x="378" />
<glyph unicode="&#x200a;" horiz-adv-x="105" />
<glyph unicode="&#x2010;" horiz-adv-x="827" d="M143 436v221h547v-221h-547z" />
<glyph unicode="&#x2011;" horiz-adv-x="827" d="M143 436v221h547v-221h-547z" />
<glyph unicode="&#x2012;" horiz-adv-x="827" d="M143 436v221h547v-221h-547z" />
<glyph unicode="&#x2013;" horiz-adv-x="1024" d="M0 436v221h1024v-221h-1024z" />
<glyph unicode="&#x2014;" horiz-adv-x="2048" d="M0 436v221h2048v-221h-2048z" />
<glyph unicode="&#x2018;" horiz-adv-x="594" d="M96 1024l189 444h196l-110 -444h-275z" />
<glyph unicode="&#x2019;" horiz-adv-x="594" d="M113 1024l114 444h273l-193 -444h-194z" />
<glyph unicode="&#x201a;" horiz-adv-x="594" d="M90 -225l115 444h272l-192 -444h-195z" />
<glyph unicode="&#x201c;" horiz-adv-x="1010" d="M96 1024l189 444h196l-110 -444h-275zM512 1024l190 444h195l-113 -444h-272z" />
<glyph unicode="&#x201d;" horiz-adv-x="1010" d="M113 1024l114 444h273l-193 -444h-194zM528 1024l113 444h274l-190 -444h-197z" />
<glyph unicode="&#x201e;" horiz-adv-x="1010" d="M90 -225l115 444h272l-192 -444h-195zM506 -225l112 444h275l-193 -444h-194z" />
<glyph unicode="&#x2022;" horiz-adv-x="864" d="M160 557q0 113 80.5 193.5t193.5 80.5q114 0 195.5 -80.5t81.5 -193.5t-82 -194.5t-195 -81.5t-193.5 81.5t-80.5 194.5z" />
<glyph unicode="&#x2026;" horiz-adv-x="1868" d="M129 143q0 73 51.5 118.5t130.5 45.5q81 0 133 -46.5t52 -117.5q0 -72 -51.5 -119t-135.5 -47q-79 0 -129.5 49t-50.5 117zM752 143q0 73 51.5 118.5t130.5 45.5q80 0 132 -46.5t52 -117.5q0 -72 -51.5 -119t-134.5 -47q-79 0 -129.5 49t-50.5 117zM1372 143 q0 72 52.5 118t131.5 46q81 0 133 -46.5t52 -117.5q0 -72 -51.5 -119t-135.5 -47q-79 0 -130.5 49t-51.5 117z" />
<glyph unicode="&#x202f;" horiz-adv-x="378" />
<glyph unicode="&#x2039;" horiz-adv-x="705" d="M53 537l330 344h268l-334 -344l334 -336h-268z" />
<glyph unicode="&#x203a;" horiz-adv-x="705" d="M53 201l334 336l-332 344h267l329 -344l-329 -336h-269z" />
<glyph unicode="&#x205f;" horiz-adv-x="473" />
<glyph unicode="&#x20ac;" d="M109 453v190h96q-2 11 -2 27v32q0 40 4 82h-98v187h127q58 237 211 362t378 125q154 0 269 -55v-260q-118 88 -254 88q-108 0 -192 -70t-120 -190h426v-187h-456q-4 -36 -4 -82v-29q0 -14 2 -30h458v-190h-428q75 -252 299 -252q143 0 269 90v-246q-130 -72 -308 -72 q-454 0 -555 480h-122z" />
<glyph unicode="&#x2122;" horiz-adv-x="1579" d="M76 1311v123h506v-123h-179v-539h-155v539h-172zM647 772v662h217l156 -453h4l168 453h203v-662h-150v445h-4l-160 -445h-135l-145 445h-6v-445h-148z" />
<glyph unicode="&#xe000;" horiz-adv-x="1025" d="M0 1025h1025v-1025h-1025v1025z" />
<glyph unicode="&#xfb01;" horiz-adv-x="1366" d="M41 795v229h172v127q0 170 106 276q113 113 312 113q91 0 155 -20v-248q-58 28 -114 28q-142 0 -142 -165v-111h232v-229h-232v-795h-317v795h-172zM895 1350q0 72 51.5 116.5t130.5 44.5q81 0 132 -45.5t51 -115.5q0 -71 -50 -117.5t-133 -46.5q-80 0 -131 47.5 t-51 116.5zM918 0v1024h315v-1024h-315z" />
<glyph unicode="&#xfb02;" horiz-adv-x="1366" d="M41 795v229h172v127q0 170 106 276q113 113 312 113q91 0 155 -20v-248q-58 28 -114 28q-142 0 -142 -165v-111h232v-229h-232v-795h-317v795h-172zM918 0v1516h315v-1516h-315z" />
<glyph unicode="&#xfb04;" horiz-adv-x="2150" d="M1701 0v1516h316v-1516h-316zM829 791v233h172v127q0 170 108 276q115 113 316 113q94 0 160 -20v-246q-63 24 -117 24q-152 0 -152 -165v-109h234v-233h-234v-791h-315v791h-172zM45 791v233h172v127q0 170 108 276q115 113 316 113q94 0 160 -20v-246q-63 24 -117 24 q-152 0 -152 -165v-109h234v-233h-234v-791h-315v791h-172z" />
</font>
</defs>
</svg>
